<?xml version="1.0" standalone="no"?><!DOCTYPE svg PUBLIC "-//W3C//DTD SVG 1.1//EN" "http://www.w3.org/Graphics/SVG/1.1/DTD/svg11.dtd" ><svg version="1.1" xmlns="http://www.w3.org/2000/svg"><defs><font horiz-adv-x="0" id="font"><font-face ascent="710" bbox="-41 -251 1131 1080" cap-height="690" descent="-250" font-family="Faune" font-stretch="normal" font-style="normal" font-weight="900" units-per-em="1000" x-height="480" /><missing-glyph d="M440 0H376V690H440ZM107 630V690H427V630ZM107 0V60H427V0ZM124 0H60L376 690H440ZM124 0H60V690H124ZM124 690 440 0H376L60 690Z" horiz-adv-x="500" /><glyph d="M141 0 310 540H287L419 0H644L436 690H236L0 0ZM524 146V260H152V146Z" glyph-name="A" horiz-adv-x="654" unicode="A" /><glyph d="M141 0 263 396H251L356 0H570L397 530H203L5 0ZM463 101V195H141V101Z" glyph-name="A.small" horiz-adv-x="575" /><glyph d="M409 690 0 0H141L461 564V690ZM409 690V0H600V690ZM485 135V0H831V135ZM816 555V690H485V555ZM524 166V280H202V166ZM776 280V415H485V280Z" glyph-name="AE" horiz-adv-x="871" unicode="&#198;" /><glyph d="M146 0 348 379 382 530H298L0 0ZM458 121V215H136V121ZM349 530V0H732V116H423L534 0V530L423 413H717V530ZM423 331V214H686V331Z" glyph-name="AE.small" horiz-adv-x="767" /><glyph d="M409 690 0 0H141L461 564V690ZM409 690V0H600V690ZM485 135V0H831V135ZM816 555V690H485V555ZM524 166V280H202V166ZM776 280V415H485V280ZM485 772 531 730 749 803 646 925Z" glyph-name="AEacute" horiz-adv-x="871" unicode="&#508;" /><glyph d="M146 0 348 379 382 530H298L0 0ZM458 121V215H136V121ZM349 530V0H732V116H423L534 0V530L423 413H717V530ZM423 331V214H686V331ZM411 641 475 590 652 748 546 843Z" glyph-name="AEacute.small" horiz-adv-x="767" /><glyph d="M141 0 310 540H287L419 0H644L436 690H236L0 0ZM524 146V260H152V146ZM198 772 244 730 462 803 359 925Z" glyph-name="Aacute" horiz-adv-x="654" unicode="&#193;" /><glyph d="M141 0 263 396H251L356 0H570L397 530H203L5 0ZM463 101V195H141V101ZM221 641 285 590 462 748 356 843Z" glyph-name="Aacute.small" horiz-adv-x="575" /><glyph d="M141 0 310 540H287L419 0H644L436 690H236L0 0ZM524 146V260H152V146ZM181 919C171 816 220 740 341 740C461 740 510 816 500 919H447C438 884 421 857 341 857C259 857 243 884 234 919Z" glyph-name="Abreve" horiz-adv-x="654" unicode="&#258;" /><glyph d="M141 0 263 396H251L356 0H570L397 530H203L5 0ZM463 101V195H141V101ZM282 608C402 608 451 694 441 812H388C379 772 362 730 282 730C201 730 185 772 176 812H123C113 694 162 608 282 608Z" glyph-name="Abreve.small" horiz-adv-x="575" /><glyph d="M141 0 310 540H287L419 0H644L436 690H236L0 0ZM524 146V260H152V146ZM144 775 185 728 328 802 471 728 512 775 371 920H284Z" glyph-name="Acircumflex" horiz-adv-x="654" unicode="&#194;" /><glyph d="M141 0 263 396H251L356 0H570L397 530H203L5 0ZM463 101V195H141V101ZM98 639 149 592 282 702 415 592 466 639 330 824H234Z" glyph-name="Acircumflex.small" horiz-adv-x="575" /><glyph d="M141 0 310 540H287L419 0H644L436 690H236L0 0ZM524 146V260H152V146ZM179 744H311V890H179ZM369 744H501V890H369Z" glyph-name="Adieresis" horiz-adv-x="654" unicode="&#196;" /><glyph d="M141 0 263 396H251L356 0H570L397 530H203L5 0ZM463 101V195H141V101ZM121 644H253V790H121ZM311 644H443V790H311Z" glyph-name="Adieresis.small" horiz-adv-x="575" /><glyph d="M141 0 310 540H287L419 0H644L436 690H236L0 0ZM524 146V260H152V146ZM216 803 434 730 480 772 319 925Z" glyph-name="Agrave" horiz-adv-x="654" unicode="&#192;" /><glyph d="M141 0 263 396H251L356 0H570L397 530H203L5 0ZM463 101V195H141V101ZM141 748 318 590 382 641 247 843Z" glyph-name="Agrave.small" horiz-adv-x="575" /><glyph d="M141 0 310 540H287L419 0H644L436 690H236L0 0ZM524 146V260H152V146ZM172 885V773H488V885Z" glyph-name="Amacron" horiz-adv-x="654" unicode="&#256;" /><glyph d="M141 0 263 396H251L356 0H570L397 530H203L5 0ZM463 101V195H141V101ZM124 785V673H440V785Z" glyph-name="Amacron.small" horiz-adv-x="575" /><glyph d="M332 -137C332 -188 363 -229 431 -229C510 -229 534 -176 529 -115H494C494 -131 486 -151 469 -151C448 -151 444 -136 444 -119C444 -60 478 0 543 0L474 30C418 6 332 -49 332 -137ZM141 0 310 540H287L419 0H644L436 690H236L0 0ZM524 146V260H152V146Z" glyph-name="Aogonek" horiz-adv-x="654" unicode="&#260;" /><glyph d="M267 -137C267 -188 298 -229 366 -229C445 -229 469 -176 464 -115H429C429 -131 421 -151 404 -151C383 -151 379 -136 379 -119C379 -60 413 0 478 0L409 30C353 6 267 -49 267 -137ZM141 0 263 396H251L356 0H570L397 530H203L5 0ZM463 101V195H141V101Z" glyph-name="Aogonek.small" horiz-adv-x="575" /><glyph d="M141 0 310 540H287L419 0H644L436 690H236L0 0ZM524 146V260H152V146ZM189 841C189 768 246 710 329 710C415 710 470 768 470 841C470 914 415 971 329 971C248 971 189 914 189 841ZM375 827C375 800 355 779 330 779C302 779 283 800 283 827C283 855 302 876 330 876C355 876 375 855 375 827Z" glyph-name="Aring" horiz-adv-x="654" unicode="&#197;" /><glyph d="M141 0 263 396H251L356 0H570L397 530H203L5 0ZM463 101V195H141V101ZM141.5 743C141.5 670 198.5 612 281.5 612C367.5 612 422.5 670 422.5 743C422.5 816 367.5 873 281.5 873C200.5 873 141.5 816 141.5 743ZM327.5 729C327.5 702 307.5 681 282.5 681C254.5 681 235.5 702 235.5 729C235.5 757 254.5 778 282.5 778C307.5 778 327.5 757 327.5 729Z" glyph-name="Aring.small" horiz-adv-x="575" /><glyph d="M141 0 310 540H287L419 0H644L436 690H236L0 0ZM524 146V260H152V146ZM192 752C192 679 249 621 332 621C418 621 473 679 473 752C473 825 418 882 332 882C251 882 192 825 192 752ZM378 738C378 711 358 690 333 690C305 690 286 711 286 738C286 766 305 787 333 787C358 787 378 766 378 738ZM198 927 244 885 462 958 359 1080Z" glyph-name="Aringacute" horiz-adv-x="654" unicode="&#506;" /><glyph d="M141 0 263 396H251L356 0H570L397 530H203L5 0ZM463 101V195H141V101ZM149 723C149 650 206 592 289 592C375 592 430 650 430 723C430 796 375 853 289 853C208 853 149 796 149 723ZM335 709C335 682 315 661 290 661C262 661 243 682 243 709C243 737 262 758 290 758C315 758 335 737 335 709ZM163 918 209 876 427 949 324 1071Z" glyph-name="Aringacute.small" horiz-adv-x="575" /><glyph d="M141 0 310 540H287L419 0H644L436 690H236L0 0ZM524 146V260H152V146ZM407 858C356 858 338 920 253 920C171 920 129 852 167 741H205C199 776 206 802 236 802C286 802 305 741 389 741C471 741 512 813 475 920H436C441 886 436 858 407 858Z" glyph-name="Atilde" horiz-adv-x="654" unicode="&#195;" /><glyph d="M141 0 263 396H251L356 0H570L397 530H203L5 0ZM463 101V195H141V101ZM129.2119 622H167.2119C161.2119 659 168.2119 687 197.2119 687C247.2119 687 266.2119 622 350.2119 622C431.2119 622 472.2119 699 435.2119 813H396.2119C401.2119 777 396.2119 747 367.2119 747C317.2119 747 299.2119 813 214.2119 813C133.2119 813 91.2119 740 129.2119 622Z" glyph-name="Atilde.small" horiz-adv-x="575" /><glyph d="M60 690V0H251V683L152 560H307C365 560 399 539 399 486C399 436 377 407 311 407H156V303H334C394 303 428 274 428 215C428 157 387 130 323 130H171V0H363C510 0 612 69 612 194C612 337 493 367 326 367H175V347H286C441 347 583 371 583 514C583 639 481 690 334 690Z" glyph-name="B" horiz-adv-x="632" unicode="B" /><glyph d="M240 40V525L144 416H272C320 416 341 399 341 367C341 338 329 315 276 315H148V226H295C339 226 360 207 360 169C360 133 338 115 287 115H162ZM55 0H335C467 0 543 57 543 151C543 263 440 291 293 291H156V271H259C399 271 519 285 519 395C519 491 442 530 314 530H55Z" glyph-name="B.small" horiz-adv-x="563" /><glyph d="M25 339C25 100 154 -15 340 -15C527 -15 584 117 584 238H499C491 171 441 138 372 138C291 138 230 199 230 339C230 465 283 536 372 536C439 536 469 494 476 453H570C582 566 529 700 345 700C164 700 25 565 25 339Z" glyph-name="C" horiz-adv-x="614" unicode="C" /><glyph d="M29 261C29 77 139 -15 301 -15C461 -15 510 89 510 195H439C430 139 383 119 338 119C272 119 228 163 228 261C228 347 264 396 331 396C378 396 400 371 407 335H497C509 434 458 540 299 540C135 540 29 434 29 261Z" glyph-name="C.small" horiz-adv-x="531" /><glyph d="M25 339C25 100 154 -15 340 -15C527 -15 584 117 584 238H499C491 171 441 138 372 138C291 138 230 199 230 339C230 465 283 536 372 536C439 536 469 494 476 453H570C582 566 529 700 345 700C164 700 25 565 25 339ZM243 772 289 730 507 803 404 925Z" glyph-name="Cacute" horiz-adv-x="614" unicode="&#262;" /><glyph d="M29 261C29 77 139 -15 301 -15C461 -15 510 89 510 195H439C430 139 383 119 338 119C272 119 228 163 228 261C228 347 264 396 331 396C378 396 400 371 407 335H497C509 434 458 540 299 540C135 540 29 434 29 261ZM221 641 285 590 462 748 356 843Z" glyph-name="Cacute.small" horiz-adv-x="526" /><glyph d="M25 339C25 100 154 -15 340 -15C527 -15 584 117 584 238H499C491 171 441 138 372 138C291 138 230 199 230 339C230 465 283 536 372 536C439 536 469 494 476 453H570C582 566 529 700 345 700C164 700 25 565 25 339ZM156 878 297 733H384L524 878L483 925L340 851L197 925Z" glyph-name="Ccaron" horiz-adv-x="614" unicode="&#268;" /><glyph d="M29 261C29 77 139 -15 301 -15C461 -15 510 89 510 195H439C430 139 383 119 338 119C272 119 228 163 228 261C228 347 264 396 331 396C378 396 400 371 407 335H497C509 434 458 540 299 540C135 540 29 434 29 261ZM106 787 242 602H338L474 787L423 834L290 724L157 834Z" glyph-name="Ccaron.small" horiz-adv-x="526" /><glyph d="M25 339C25 100 154 -15 340 -15C527 -15 584 117 584 238H499C491 171 441 138 372 138C291 138 230 199 230 339C230 465 283 536 372 536C439 536 469 494 476 453H570C582 566 529 700 345 700C164 700 25 565 25 339ZM251 -117C243 -169 268 -212 340 -212C392 -212 436 -179 436 -118C436 -50 376 -25 316 -42L340 -40L337 0L297 3L277 -69L297 -85C327 -81 344 -94 344 -117C344 -138 330 -150 313 -150C293 -150 283 -140 283 -117Z" glyph-name="Ccedilla" horiz-adv-x="614" unicode="&#199;" /><glyph d="M29 261C29 77 139 -15 301 -15C461 -15 510 89 510 195H439C430 139 383 119 338 119C272 119 228 163 228 261C228 347 264 396 331 396C378 396 400 371 407 335H497C509 434 458 540 299 540C135 540 29 434 29 261ZM191 -117C183 -169 208 -212 280 -212C332 -212 376 -179 376 -118C376 -50 316 -25 256 -42L280 -40L277 0L237 3L217 -69L237 -85C267 -81 284 -94 284 -117C284 -138 270 -150 253 -150C233 -150 223 -140 223 -117Z" glyph-name="Ccedilla.small" horiz-adv-x="526" /><glyph d="M25 339C25 100 154 -15 340 -15C527 -15 584 117 584 238H499C491 171 441 138 372 138C291 138 230 199 230 339C230 465 283 536 372 536C439 536 469 494 476 453H570C582 566 529 700 345 700C164 700 25 565 25 339ZM153 775 194 728 337 802 480 728 521 775 380 920H293Z" glyph-name="Ccircumflex" horiz-adv-x="614" unicode="&#264;" /><glyph d="M29 261C29 77 139 -15 301 -15C461 -15 510 89 510 195H439C430 139 383 119 338 119C272 119 228 163 228 261C228 347 264 396 331 396C378 396 400 371 407 335H497C509 434 458 540 299 540C135 540 29 434 29 261ZM98 639 149 592 282 702 415 592 466 639 330 824H234Z" glyph-name="Ccircumflex.small" horiz-adv-x="526" /><glyph d="M25 339C25 100 154 -15 340 -15C527 -15 584 117 584 238H499C491 171 441 138 372 138C291 138 230 199 230 339C230 465 283 536 372 536C439 536 469 494 476 453H570C582 566 529 700 345 700C164 700 25 565 25 339ZM249 744H431V890H249Z" glyph-name="Cdotaccent" horiz-adv-x="614" unicode="&#266;" /><glyph d="M29 261C29 77 139 -15 301 -15C461 -15 510 89 510 195H439C430 139 383 119 338 119C272 119 228 163 228 261C228 347 264 396 331 396C378 396 400 371 407 335H497C509 434 458 540 299 540C135 540 29 434 29 261ZM199 644H381V790H199Z" glyph-name="Cdotaccent.small" horiz-adv-x="526" /><glyph d="M251 619 213 550H293C387 550 442 489 442 348C442 249 425 140 293 140H193L251 63ZM60 690V0H290C476 0 646 86 646 349C646 557 524 690 290 690Z" glyph-name="D" horiz-adv-x="671" unicode="D" /><glyph d="M240 468 204 408H268C329 408 366 363 366 268C366 191 348 122 268 122H184L240 55ZM55 530V0H261C420 0 564 67 564 269C564 432 457 530 261 530Z" glyph-name="D.small" horiz-adv-x="589" /><glyph d="M251 619 213 550H293C387 550 442 489 442 348C442 249 425 140 293 140H193L251 63ZM60 690V0H290C476 0 646 86 646 349C646 557 524 690 290 690ZM106 878 247 733H334L474 878L433 925L290 851L147 925Z" glyph-name="Dcaron" horiz-adv-x="671" unicode="&#270;" /><glyph d="M240 468 204 408H268C329 408 366 363 366 268C366 191 348 122 268 122H184L240 55ZM55 530V0H261C420 0 564 67 564 269C564 432 457 530 261 530ZM76 787 212 602H308L444 787L393 834L260 724L127 834Z" glyph-name="Dcaron.small" horiz-adv-x="579" /><glyph d="M0 401V319H341V401ZM251 619 213 550H293C387 550 442 489 442 348C442 249 425 140 293 140H193L251 63ZM60 690V0H290C476 0 646 86 646 349C646 557 524 690 290 690Z" glyph-name="Dcroat" horiz-adv-x="671" unicode="&#272;" /><glyph d="M0 298V233H300V298ZM240 468 204 408H268C329 408 366 363 366 268C366 191 348 122 268 122H184L240 55ZM55 530V0H261C420 0 564 67 564 269C564 432 457 530 261 530Z" glyph-name="Dcroat.small" horiz-adv-x="579" /><glyph d="M398 114H168L296 501ZM10 0H636V59L435 690H235L10 59Z" glyph-name="Delta" horiz-adv-x="646" unicode="&#8710;" /><glyph d="M60 690V0H251V690ZM447 293V428H136V293ZM136 135V0H502V135ZM487 555V690H136V555Z" glyph-name="E" horiz-adv-x="542" unicode="E" /><glyph d="M240 491 129 413H438V530H55V0H453V116H129L240 24ZM407 214V331H129V214Z" glyph-name="E.small" horiz-adv-x="488" /><glyph d="M60 690V0H251V690ZM447 293V428H136V293ZM136 135V0H502V135ZM487 555V690H136V555ZM163 772 209 730 427 803 324 925Z" glyph-name="Eacute" horiz-adv-x="542" unicode="&#201;" /><glyph d="M240 491 129 413H438V530H55V0H453V116H129L240 24ZM407 214V331H129V214ZM141 641 205 590 382 748 276 843Z" glyph-name="Eacute.small" horiz-adv-x="483" /><glyph d="M60 690V0H251V690ZM447 293V428H136V293ZM136 135V0H502V135ZM487 555V690H136V555ZM121 919C111 816 160 740 281 740C401 740 450 816 440 919H387C378 884 361 857 281 857C199 857 183 884 174 919Z" glyph-name="Ebreve" horiz-adv-x="542" unicode="&#276;" /><glyph d="M240 491 129 413H438V530H55V0H453V116H129L240 24ZM407 214V331H129V214ZM248 608C368 608 417 694 407 812H354C345 772 328 730 248 730C167 730 151 772 142 812H89C79 694 128 608 248 608Z" glyph-name="Ebreve.small" horiz-adv-x="483" /><glyph d="M60 690V0H251V690ZM447 293V428H136V293ZM136 135V0H502V135ZM487 555V690H136V555ZM97 878 238 733H325L465 878L424 925L281 851L138 925Z" glyph-name="Ecaron" horiz-adv-x="542" unicode="&#282;" /><glyph d="M240 491 129 413H438V530H55V0H453V116H129L240 24ZM407 214V331H129V214ZM66 787 202 602H298L434 787L383 834L250 724L117 834Z" glyph-name="Ecaron.small" horiz-adv-x="483" /><glyph d="M60 690V0H251V690ZM447 293V428H136V293ZM136 135V0H502V135ZM487 555V690H136V555ZM99 775 140 728 283 802 426 728 467 775 326 920H239Z" glyph-name="Ecircumflex" horiz-adv-x="542" unicode="&#202;" /><glyph d="M240 491 129 413H438V530H55V0H453V116H129L240 24ZM407 214V331H129V214ZM62 639 113 592 246 702 379 592 430 639 294 824H198Z" glyph-name="Ecircumflex.small" horiz-adv-x="483" /><glyph d="M60 690V0H251V690ZM447 293V428H136V293ZM136 135V0H502V135ZM487 555V690H136V555ZM118 744H250V890H118ZM308 744H440V890H308Z" glyph-name="Edieresis" horiz-adv-x="542" unicode="&#203;" /><glyph d="M240 491 129 413H438V530H55V0H453V116H129L240 24ZM407 214V331H129V214ZM89 644H221V790H89ZM279 644H411V790H279Z" glyph-name="Edieresis.small" horiz-adv-x="483" /><glyph d="M60 690V0H251V690ZM447 293V428H136V293ZM136 135V0H502V135ZM487 555V690H136V555ZM189 744H371V890H189Z" glyph-name="Edotaccent" horiz-adv-x="542" unicode="&#278;" /><glyph d="M240 491 129 413H438V530H55V0H453V116H129L240 24ZM407 214V331H129V214ZM155 644H337V790H155Z" glyph-name="Edotaccent.small" horiz-adv-x="483" /><glyph d="M60 690V0H251V690ZM447 293V428H136V293ZM136 135V0H502V135ZM487 555V690H136V555ZM148 803 366 730 412 772 251 925Z" glyph-name="Egrave" horiz-adv-x="542" unicode="&#200;" /><glyph d="M240 491 129 413H438V530H55V0H453V116H129L240 24ZM407 214V331H129V214ZM111 748 288 590 352 641 217 843Z" glyph-name="Egrave.small" horiz-adv-x="483" /><glyph d="M60 690V0H251V690ZM447 293V428H136V293ZM136 135V0H502V135ZM487 555V690H136V555ZM119 885V773H435V885Z" glyph-name="Emacron" horiz-adv-x="542" unicode="&#274;" /><glyph d="M240 491 129 413H438V530H55V0H453V116H129L240 24ZM407 214V331H129V214ZM89 785V673H405V785Z" glyph-name="Emacron.small" horiz-adv-x="483" /><glyph d="M444 -250C584 -250 626 -149 627 -5V690H478V345L248 690H60V0H208V392L478 -5C478 -109 449 -125 409 -125C371 -125 357 -110 354 -65H270C270 -163 304 -250 444 -250Z" glyph-name="Eng" horiz-adv-x="687" unicode="&#330;" /><glyph d="M397 -250C520 -250 557 -150 557 -39V530H413V283L234 530H62V0H205V290L413 12V-53C413 -107 398 -134 366 -134C337 -134 325 -120 323 -82H242C242 -184 281 -250 397 -250Z" glyph-name="Eng.small" horiz-adv-x="595" /><glyph d="M282 -137C282 -188 313 -229 381 -229C460 -229 484 -176 479 -115H444C444 -131 436 -151 419 -151C398 -151 394 -136 394 -119C394 -60 428 0 493 0L424 30C368 6 282 -49 282 -137ZM60 690V0H251V690ZM447 293V428H136V293ZM136 135V0H502V135ZM487 555V690H136V555Z" glyph-name="Eogonek" horiz-adv-x="542" unicode="&#280;" /><glyph d="M242 -137C242 -188 273 -229 341 -229C420 -229 444 -176 439 -115H404C404 -131 396 -151 379 -151C358 -151 354 -136 354 -119C354 -60 388 0 453 0L384 30C328 6 242 -49 242 -137ZM240 491 129 413H438V530H55V0H453V116H129L240 24ZM407 214V331H129V214Z" glyph-name="Eogonek.small" horiz-adv-x="483" /><glyph d="M0 401V319H341V401ZM251 619 213 550H293C387 550 442 489 442 348C442 249 425 140 293 140H193L251 63ZM60 690V0H290C476 0 646 86 646 349C646 557 524 690 290 690Z" glyph-name="Eth" horiz-adv-x="671" unicode="&#208;" /><glyph d="M0 298V233H300V298ZM240 468 204 408H268C329 408 366 363 366 268C366 191 348 122 268 122H184L240 55ZM55 530V0H261C420 0 564 67 564 269C564 432 457 530 261 530Z" glyph-name="Eth.small" horiz-adv-x="579" /><glyph d="M435 553C484 553 520 535 554 505L615 575C587 625 519 685 407 685C235 685 117 569 117 356V299C117 90 224 -15 398 -15C502 -15 574 37 613 97L564 163C536 137 492 114 434 114C347 114 317 175 317 261V390C317 487 350 553 435 553ZM492 462H71L46 362H467ZM463 312H45L20 212H438Z" glyph-name="Euro" horiz-adv-x="620" unicode="&#8364;" /><glyph d="M60 690V0H251V690ZM442 268V403H136V268ZM492 555V690H136V555Z" glyph-name="F" horiz-adv-x="502" unicode="F" /><glyph d="M55 530V0H240V520L129 409H443V530ZM129 315V193H405V315Z" glyph-name="F.small" horiz-adv-x="453" /><glyph d="M55 530V0H240V520L129 409H443V530ZM129 315V193H405V315ZM503 530V0H688V530Z" glyph-name="FI.small" horiz-adv-x="733" /><glyph d="M55 530V0H240V520L129 409H443V530ZM129 315V193H405V315ZM503 530V0H897V126H577L688 0V530Z" glyph-name="FL.small" horiz-adv-x="902" /><glyph d="M25 342C25 119 137 -15 351 -15C503 -15 623 61 623 243V360H398V240H479L472 247V216C472 160 432 129 368 129C270 129 230 213 230 330C230 467 292 536 378 536C451 536 488 495 496 453H590C605 560 541 700 355 700C177 700 25 577 25 342Z" glyph-name="G" horiz-adv-x="648" unicode="G" /><glyph d="M25 261C25 91 120 -15 302 -15C431 -15 530 42 530 203V279H339V174H390L384 180V167C384 131 365 111 321 111C254 111 224 173 224 251C224 335 269 396 330 396C379 396 400 372 408 335H498C513 429 463 540 296 540C142 540 25 442 25 261Z" glyph-name="G.small" horiz-adv-x="565" /><glyph d="M25 342C25 119 137 -15 351 -15C503 -15 623 61 623 243V360H398V240H479L472 247V216C472 160 432 129 368 129C270 129 230 213 230 330C230 467 292 536 378 536C451 536 488 495 496 453H590C605 560 541 700 355 700C177 700 25 577 25 342ZM171 919C161 816 210 740 331 740C451 740 500 816 490 919H437C428 884 411 857 331 857C249 857 233 884 224 919Z" glyph-name="Gbreve" horiz-adv-x="648" unicode="&#286;" /><glyph d="M25 261C25 91 120 -15 302 -15C431 -15 530 42 530 203V279H339V174H390L384 180V167C384 131 365 111 321 111C254 111 224 173 224 251C224 335 269 396 330 396C379 396 400 372 408 335H498C513 429 463 540 296 540C142 540 25 442 25 261ZM280 608C400 608 449 694 439 812H386C377 772 360 730 280 730C199 730 183 772 174 812H121C111 694 160 608 280 608Z" glyph-name="Gbreve.small" horiz-adv-x="564" /><glyph d="M25 342C25 119 137 -15 351 -15C503 -15 623 61 623 243V360H398V240H479L472 247V216C472 160 432 129 368 129C270 129 230 213 230 330C230 467 292 536 378 536C451 536 488 495 496 453H590C605 560 541 700 355 700C177 700 25 577 25 342ZM155 775 196 728 339 802 482 728 523 775 382 920H295Z" glyph-name="Gcircumflex" horiz-adv-x="648" unicode="&#284;" /><glyph d="M25 261C25 91 120 -15 302 -15C431 -15 530 42 530 203V279H339V174H390L384 180V167C384 131 365 111 321 111C254 111 224 173 224 251C224 335 269 396 330 396C379 396 400 372 408 335H498C513 429 463 540 296 540C142 540 25 442 25 261ZM96 639 147 592 280 702 413 592 464 639 328 824H232Z" glyph-name="Gcircumflex.small" horiz-adv-x="564" /><glyph d="M25 342C25 119 137 -15 351 -15C503 -15 623 61 623 243V360H398V240H479L472 247V216C472 160 432 129 368 129C270 129 230 213 230 330C230 467 292 536 378 536C451 536 488 495 496 453H590C605 560 541 700 355 700C177 700 25 577 25 342ZM254 -235 341 -251 427 -56H283Z" glyph-name="Gcommaaccent" horiz-adv-x="648" unicode="&#290;" /><glyph d="M25 261C25 91 120 -15 302 -15C431 -15 530 42 530 203V279H339V174H390L384 180V167C384 131 365 111 321 111C254 111 224 173 224 251C224 335 269 396 330 396C379 396 400 372 408 335H498C513 429 463 540 296 540C142 540 25 442 25 261ZM204 -235 291 -251 377 -56H233Z" glyph-name="Gcommaaccent.small" horiz-adv-x="564" /><glyph d="M25 342C25 119 137 -15 351 -15C503 -15 623 61 623 243V360H398V240H479L472 247V216C472 160 432 129 368 129C270 129 230 213 230 330C230 467 292 536 378 536C451 536 488 495 496 453H590C605 560 541 700 355 700C177 700 25 577 25 342ZM249 744H431V890H249Z" glyph-name="Gdotaccent" horiz-adv-x="648" unicode="&#288;" /><glyph d="M25 261C25 91 120 -15 302 -15C431 -15 530 42 530 203V279H339V174H390L384 180V167C384 131 365 111 321 111C254 111 224 173 224 251C224 335 269 396 330 396C379 396 400 372 408 335H498C513 429 463 540 296 540C142 540 25 442 25 261ZM198 644H380V790H198Z" glyph-name="Gdotaccent.small" horiz-adv-x="564" /><glyph d="M60 690V0H251V690ZM572 284V419H136V284ZM450 690V0H641V690Z" glyph-name="H" horiz-adv-x="701" unicode="H" /><glyph d="M55 530V0H240V530ZM497 204V330H129V204ZM379 530V0H564V530Z" glyph-name="H.small" horiz-adv-x="619" /><glyph d="M701 527V609H0V527ZM60 690V0H251V690ZM572 284V419H136V284ZM450 690V0H641V690Z" glyph-name="Hbar" horiz-adv-x="701" unicode="&#294;" /><glyph d="M0 462V397H609V462ZM55 530V0H240V530ZM497 204V330H129V204ZM379 530V0H564V530Z" glyph-name="Hbar.small" horiz-adv-x="609" /><glyph d="M60 690V0H251V690ZM572 284V419H136V284ZM450 690V0H641V690ZM166 775 207 728 350 802 493 728 534 775 393 920H306Z" glyph-name="Hcircumflex" horiz-adv-x="701" unicode="&#292;" /><glyph d="M55 530V0H240V530ZM497 204V330H129V204ZM379 530V0H564V530ZM120 639 171 592 304 702 437 592 488 639 352 824H256Z" glyph-name="Hcircumflex.small" horiz-adv-x="609" /><glyph d="M60 690V0H251V690Z" glyph-name="I" horiz-adv-x="311" unicode="I" /><glyph d="M55 530V0H240V530Z" glyph-name="I.small" horiz-adv-x="295" /><glyph d="M60 690V0H251V690ZM321 223C321 92 354 -15 520 -15C679 -15 723 111 723 244V690H532V262C532 184 517 140 470 140C424 140 413 176 406 223Z" glyph-name="IJ" horiz-adv-x="783" unicode="&#306;" /><glyph d="M55 530V0H240V530ZM295 177C295 69 321 -15 470 -15C602 -15 649 75 649 186V530H465V202C465 148 454 121 422 121C392 121 373 139 369 177Z" glyph-name="IJ.small" horiz-adv-x="699" /><glyph d="M60 690V0H251V690ZM47 772 93 730 311 803 208 925Z" glyph-name="Iacute" horiz-adv-x="311" unicode="&#205;" /><glyph d="M55 530V0H240V530ZM44 641 108 590 285 748 179 843Z" glyph-name="Iacute.small" horiz-adv-x="285" /><glyph d="M60 690V0H251V690ZM-4 919C-14 816 35 740 156 740C276 740 325 816 315 919H262C253 884 236 857 156 857C74 857 58 884 49 919Z" glyph-name="Ibreve" horiz-adv-x="311" unicode="&#300;" /><glyph d="M55 530V0H240V530ZM143 608C263 608 312 694 302 812H249C240 772 223 730 143 730C62 730 46 772 37 812H-16C-26 694 23 608 143 608Z" glyph-name="Ibreve.small" horiz-adv-x="285" /><glyph d="M156 802 279 728 320 775 199 920H112L-8 775L33 728ZM60 690V0H251V690Z" glyph-name="Icircumflex" horiz-adv-x="311" unicode="&#206;" /><glyph d="M55 530V0H240V530ZM-41 639 10 592 143 702 276 592 327 639 191 824H95Z" glyph-name="Icircumflex.small" horiz-adv-x="285" /><glyph d="M60 690V0H251V690ZM-6 744H126V890H-6ZM184 744H316V890H184Z" glyph-name="Idieresis" horiz-adv-x="311" unicode="&#207;" /><glyph d="M55 530V0H240V530ZM-18 644H114V790H-18ZM172 644H304V790H172Z" glyph-name="Idieresis.small" horiz-adv-x="285" /><glyph d="M60 690V0H251V690ZM64 744H246V890H64Z" glyph-name="Idotaccent" horiz-adv-x="311" unicode="&#304;" /><glyph d="M55 530V0H240V530ZM52 644H234V790H52Z" glyph-name="Idotaccent.small" horiz-adv-x="285" /><glyph d="M60 690V0H251V690ZM0 803 218 730 264 772 103 925Z" glyph-name="Igrave" horiz-adv-x="311" unicode="&#204;" /><glyph d="M55 530V0H240V530ZM0 748 177 590 241 641 106 843Z" glyph-name="Igrave.small" horiz-adv-x="285" /><glyph d="M18 885V773H294V885ZM60 690V0H251V690Z" glyph-name="Imacron" horiz-adv-x="311" unicode="&#298;" /><glyph d="M55 530V0H240V530ZM-15 785V673H301V785Z" glyph-name="Imacron.small" horiz-adv-x="285" /><glyph d="M39 -137C39 -188 70 -229 138 -229C217 -229 241 -176 236 -115H201C201 -131 193 -151 176 -151C155 -151 151 -136 151 -119C151 -60 185 0 250 0L181 30C125 6 39 -49 39 -137ZM60 690V0H251V690Z" glyph-name="Iogonek" horiz-adv-x="311" unicode="&#302;" /><glyph d="M27 -137C27 -188 58 -229 126 -229C205 -229 229 -176 224 -115H189C189 -131 181 -151 164 -151C143 -151 139 -136 139 -119C139 -60 173 0 238 0L169 30C113 6 27 -49 27 -137ZM55 530V0H240V530Z" glyph-name="Iogonek.small" horiz-adv-x="285" /><glyph d="M60 690V0H251V690ZM242 858C191 858 173 920 88 920C6 920 -36 852 2 741H40C34 776 41 802 71 802C121 802 140 741 224 741C306 741 347 813 310 920H271C276 886 271 858 242 858Z" glyph-name="Itilde" horiz-adv-x="311" unicode="&#296;" /><glyph d="M55 530V0H240V530ZM-10 622H28C22 659 29 687 58 687C108 687 127 622 211 622C292 622 333 699 296 813H257C262 777 257 747 228 747C178 747 160 813 75 813C-6 813 -48 740 -10 622Z" glyph-name="Itilde.small" horiz-adv-x="285" /><glyph d="M10 223C10 92 43 -15 209 -15C368 -15 412 111 412 244V690H221V262C221 184 206 140 159 140C113 140 102 176 95 223Z" glyph-name="J" horiz-adv-x="472" unicode="J" /><glyph d="M10 177C10 69 36 -15 185 -15C317 -15 364 75 364 186V530H180V202C180 148 169 121 137 121C107 121 88 139 84 177Z" glyph-name="J.small" horiz-adv-x="419" /><glyph d="M310 802 433 728 474 775 353 920H266L146 775L187 728ZM10 223C10 92 43 -15 209 -15C368 -15 412 111 412 244V690H221V262C221 184 206 140 159 140C113 140 102 176 95 223Z" glyph-name="Jcircumflex" horiz-adv-x="472" unicode="&#308;" /><glyph d="M10 177C10 69 36 -15 185 -15C317 -15 364 75 364 186V530H180V202C180 148 169 121 137 121C107 121 88 139 84 177ZM86 639 137 592 270 702 403 592 454 639 318 824H222Z" glyph-name="Jcircumflex.small" horiz-adv-x="414" /><glyph d="M60 0H250V690H60ZM305 297 640 690H475L223 398ZM214 368 413 0H667L362 506Z" glyph-name="K" horiz-adv-x="662" unicode="K" /><glyph d="M55 530V0H239V530ZM195 282 269 200 570 530H411ZM206 274 361 0H591L331 400Z" glyph-name="K.small" horiz-adv-x="601" /><glyph d="M60 0H250V690H60ZM305 297 640 690H475L223 398ZM214 368 413 0H667L362 506ZM224 -235 311 -251 397 -56H253Z" glyph-name="Kcommaaccent" horiz-adv-x="662" unicode="&#310;" /><glyph d="M55 530V0H239V530ZM195 282 269 200 570 530H411ZM206 274 361 0H591L331 400ZM192 -235 279 -251 365 -56H221Z" glyph-name="Kcommaaccent.small" horiz-adv-x="591" /><glyph d="M60 690V0H251V690ZM136 140V0H512V140Z" glyph-name="L" horiz-adv-x="522" unicode="L" /><glyph d="M55 530V0H449V126H129L240 0V530Z" glyph-name="L.small" horiz-adv-x="459" /><glyph d="M60 690V0H251V690ZM136 140V0H512V140ZM99 772 145 730 363 803 260 925Z" glyph-name="Lacute" horiz-adv-x="522" unicode="&#313;" /><glyph d="M55 530V0H449V126H129L240 0V530ZM91 641 155 590 332 748 226 843Z" glyph-name="Lacute.small" horiz-adv-x="454" /><glyph d="M60 690V0H251V690ZM136 140V0H512V140ZM335 470H434L484 690H335Z" glyph-name="Lcaron" horiz-adv-x="522" unicode="&#317;" /><glyph d="M55 530V0H449V126H129L240 0V530ZM324 310H423L473 530H324Z" glyph-name="Lcaron.small" horiz-adv-x="454" /><glyph d="M60 690V0H251V690ZM136 140V0H512V140ZM214 -235 301 -251 387 -56H243Z" glyph-name="Lcommaaccent" horiz-adv-x="522" unicode="&#315;" /><glyph d="M55 530V0H449V126H129L240 0V530ZM174 -235 261 -251 347 -56H203Z" glyph-name="Lcommaaccent.small" horiz-adv-x="454" /><glyph d="M60 690V0H251V690ZM136 140V0H512V140ZM330 310H512V456H330Z" glyph-name="Ldot" horiz-adv-x="522" unicode="&#319;" /><glyph d="M305 239H444V385H305ZM55 530V0H449V126H129L240 0V530Z" glyph-name="Ldot.small" horiz-adv-x="474" /><glyph d="M0 108 322 359V499L0 248ZM60 690V0H251V690ZM136 140V0H512V140Z" glyph-name="Lslash" horiz-adv-x="522" unicode="&#321;" /><glyph d="M0 76 322 327V467L0 216ZM55 530V0H449V126H129L240 0V530Z" glyph-name="Lslash.small" horiz-adv-x="454" /><glyph d="M209 0V608H110L369 0H467L710 568L626 608V0H785V690H620L390 157H493L267 690H60V0Z" glyph-name="M" horiz-adv-x="845" unicode="M" /><glyph d="M55 530V0H189V458H114L309 0H387L584 416L523 458V0H657V530H503L315 136H425L254 530Z" glyph-name="M.small" horiz-adv-x="712" /><glyph d="M72 592 477 -5H627V690H478V-2L595 169L248 690H60V0H208V689Z" glyph-name="N" horiz-adv-x="687" unicode="N" /><glyph d="M55 530V0H198V530L78 450L415 0H550V530H406V52L510 140L227 530Z" glyph-name="N.small" horiz-adv-x="605" /><glyph d="M72 592 477 -5H627V690H478V-2L595 169L248 690H60V0H208V689ZM223 772 269 730 487 803 384 925Z" glyph-name="Nacute" horiz-adv-x="687" unicode="&#323;" /><glyph d="M55 530V0H198V530L78 450L415 0H550V530H406V52L510 140L227 530ZM226 641 290 590 467 748 361 843Z" glyph-name="Nacute.small" horiz-adv-x="595" /><glyph d="M72 592 477 -5H627V690H478V-2L595 169L248 690H60V0H208V689ZM176 878 317 733H404L544 878L503 925L360 851L217 925Z" glyph-name="Ncaron" horiz-adv-x="687" unicode="&#327;" /><glyph d="M55 530V0H198V530L78 450L415 0H550V530H406V52L510 140L227 530ZM126 787 262 602H358L494 787L443 834L310 724L177 834Z" glyph-name="Ncaron.small" horiz-adv-x="595" /><glyph d="M72 592 477 -5H627V690H478V-2L595 169L248 690H60V0H208V689ZM244 -235 331 -251 417 -56H273Z" glyph-name="Ncommaaccent" horiz-adv-x="687" unicode="&#325;" /><glyph d="M55 530V0H198V530L78 450L415 0H550V530H406V52L510 140L227 530ZM204 -235 291 -251 377 -56H233Z" glyph-name="Ncommaaccent.small" horiz-adv-x="595" /><glyph d="M72 592 477 -5H627V690H478V-2L595 169L248 690H60V0H208V689ZM451 858C400 858 382 920 297 920C215 920 173 852 211 741H249C243 776 250 802 280 802C330 802 349 741 433 741C515 741 556 813 519 920H480C485 886 480 858 451 858Z" glyph-name="Ntilde" horiz-adv-x="687" unicode="&#209;" /><glyph d="M55 530V0H198V530L78 450L415 0H550V530H406V52L510 140L227 530ZM147 622H185C179 659 186 687 215 687C265 687 284 622 368 622C449 622 490 699 453 813H414C419 777 414 747 385 747C335 747 317 813 232 813C151 813 109 740 147 622Z" glyph-name="Ntilde.small" horiz-adv-x="595" /><glyph d="M25 344C25 106 154 -15 352 -15C568 -15 675 130 675 353C675 588 527 700 352 700C146 700 25 558 25 344ZM504 345C504 201 447 139 374 139C294 139 230 201 230 344C230 463 284 532 374 532C450 532 504 462 504 345Z" glyph-name="O" horiz-adv-x="700" unicode="O" /><glyph d="M25 265C25 86 128 -15 303 -15C486 -15 577 94 577 266C577 446 452 540 303 540C130 540 25 429 25 265ZM420 264C420 160 372 121 320 121C262 121 223 165 223 266C223 345 256 392 322 392C381 392 420 339 420 264Z" glyph-name="O.small" horiz-adv-x="602" /><glyph d="M25 344C25 106 148 -15 339 -15C529 -15 615 155 615 353C615 579 501 700 339 700C144 700 25 558 25 344ZM491 345C491 188 437 140 356 140C284 140 229 201 229 344C229 461 274 530 356 530C444 530 491 460 491 345ZM494 690V0H665V690ZM841 293V428H550V293ZM550 135V0H896V135ZM881 555V690H550V555Z" glyph-name="OE" horiz-adv-x="936" unicode="&#338;" /><glyph d="M25 265C25 82 132 -15 297 -15C488 -15 540 100 540 272C540 452 467 540 300 540C130 540 25 429 25 265ZM408 265C408 154 366 121 315 121C255 121 223 165 223 265C223 344 249 391 320 391C378 391 408 346 408 265ZM438 530V0H763V116H449L560 24V520L449 413H748V530ZM449 331V214H717V331Z" glyph-name="OE.small" horiz-adv-x="793" /><glyph d="M25 344C25 106 154 -15 352 -15C568 -15 675 130 675 353C675 588 527 700 352 700C146 700 25 558 25 344ZM504 345C504 201 447 139 374 139C294 139 230 201 230 344C230 463 284 532 374 532C450 532 504 462 504 345ZM243 772 289 730 507 803 404 925Z" glyph-name="Oacute" horiz-adv-x="700" unicode="&#211;" /><glyph d="M25 265C25 86 128 -15 303 -15C486 -15 577 94 577 266C577 446 452 540 303 540C130 540 25 429 25 265ZM420 264C420 160 372 121 320 121C262 121 223 165 223 266C223 345 256 392 322 392C381 392 420 339 420 264ZM211 641 275 590 452 748 346 843Z" glyph-name="Oacute.small" horiz-adv-x="601" /><glyph d="M25 344C25 106 154 -15 352 -15C568 -15 675 130 675 353C675 588 527 700 352 700C146 700 25 558 25 344ZM504 345C504 201 447 139 374 139C294 139 230 201 230 344C230 463 284 532 374 532C450 532 504 462 504 345ZM191 919C181 816 230 740 351 740C471 740 520 816 510 919H457C448 884 431 857 351 857C269 857 253 884 244 919Z" glyph-name="Obreve" horiz-adv-x="700" unicode="&#334;" /><glyph d="M25 265C25 86 128 -15 303 -15C486 -15 577 94 577 266C577 446 452 540 303 540C130 540 25 429 25 265ZM420 264C420 160 372 121 320 121C262 121 223 165 223 266C223 345 256 392 322 392C381 392 420 339 420 264ZM300 608C420 608 469 694 459 812H406C397 772 380 730 300 730C219 730 203 772 194 812H141C131 694 180 608 300 608Z" glyph-name="Obreve.small" horiz-adv-x="601" /><glyph d="M25 344C25 106 154 -15 352 -15C568 -15 675 130 675 353C675 588 527 700 352 700C146 700 25 558 25 344ZM504 345C504 201 447 139 374 139C294 139 230 201 230 344C230 463 284 532 374 532C450 532 504 462 504 345ZM168 775 209 728 352 802 495 728 536 775 395 920H308Z" glyph-name="Ocircumflex" horiz-adv-x="700" unicode="&#212;" /><glyph d="M25 265C25 86 128 -15 303 -15C486 -15 577 94 577 266C577 446 452 540 303 540C130 540 25 429 25 265ZM420 264C420 160 372 121 320 121C262 121 223 165 223 266C223 345 256 392 322 392C381 392 420 339 420 264ZM116 639 167 592 300 702 433 592 484 639 348 824H252Z" glyph-name="Ocircumflex.small" horiz-adv-x="601" /><glyph d="M25 344C25 106 154 -15 352 -15C568 -15 675 130 675 353C675 588 527 700 352 700C146 700 25 558 25 344ZM504 345C504 201 447 139 374 139C294 139 230 201 230 344C230 463 284 532 374 532C450 532 504 462 504 345ZM186 744H318V890H186ZM376 744H508V890H376Z" glyph-name="Odieresis" horiz-adv-x="700" unicode="&#214;" /><glyph d="M25 265C25 86 128 -15 303 -15C486 -15 577 94 577 266C577 446 452 540 303 540C130 540 25 429 25 265ZM420 264C420 160 372 121 320 121C262 121 223 165 223 266C223 345 256 392 322 392C381 392 420 339 420 264ZM139 644H271V790H139ZM329 644H461V790H329Z" glyph-name="Odieresis.small" horiz-adv-x="601" /><glyph d="M25 344C25 106 154 -15 352 -15C568 -15 675 130 675 353C675 588 527 700 352 700C146 700 25 558 25 344ZM504 345C504 201 447 139 374 139C294 139 230 201 230 344C230 463 284 532 374 532C450 532 504 462 504 345ZM213 803 431 730 477 772 316 925Z" glyph-name="Ograve" horiz-adv-x="700" unicode="&#210;" /><glyph d="M25 265C25 86 128 -15 303 -15C486 -15 577 94 577 266C577 446 452 540 303 540C130 540 25 429 25 265ZM420 264C420 160 372 121 320 121C262 121 223 165 223 266C223 345 256 392 322 392C381 392 420 339 420 264ZM131 748 308 590 372 641 237 843Z" glyph-name="Ograve.small" horiz-adv-x="601" /><glyph d="M25 344C25 106 154 -15 352 -15C568 -15 675 130 675 353C675 588 527 700 352 700C146 700 25 558 25 344ZM504 345C504 201 447 139 374 139C294 139 230 201 230 344C230 463 284 532 374 532C450 532 504 462 504 345ZM188 777 250 718 423 869 346 950ZM398 777 460 718 633 869 556 950Z" glyph-name="Ohungarumlaut" horiz-adv-x="700" unicode="&#336;" /><glyph d="M25 265C25 86 128 -15 303 -15C486 -15 577 94 577 266C577 446 452 540 303 540C130 540 25 429 25 265ZM420 264C420 160 372 121 320 121C262 121 223 165 223 266C223 345 256 392 322 392C381 392 420 339 420 264ZM132 631 217 590 344 794 227 842ZM332 631 417 590 551 780 439 836Z" glyph-name="Ohungarumlaut.small" horiz-adv-x="601" /><glyph d="M25 344C25 106 154 -15 352 -15C568 -15 675 130 675 353C675 588 527 700 352 700C146 700 25 558 25 344ZM504 345C504 201 447 139 374 139C294 139 230 201 230 344C230 463 284 532 374 532C450 532 504 462 504 345ZM202 885V773H518V885Z" glyph-name="Omacron" horiz-adv-x="700" unicode="&#332;" /><glyph d="M25 265C25 86 128 -15 303 -15C486 -15 577 94 577 266C577 446 452 540 303 540C130 540 25 429 25 265ZM420 264C420 160 372 121 320 121C262 121 223 165 223 266C223 345 256 392 322 392C381 392 420 339 420 264ZM142 785V673H458V785Z" glyph-name="Omacron.small" horiz-adv-x="601" /><glyph d="M333 169C331 170 239 221 239 357C239 465 289 532 382 532C481 532 526 446 526 357C526 221 436 170 433 169V0H693V134H454V113C482.2395 121.4719 711 131 711 391C711 572 592 700 371 700C166 700 30 572 30 391C30 131 267 121 298 113V134H45V0H333Z" glyph-name="Omega" horiz-adv-x="741" unicode="&#8486;" /><glyph d="M613 700 25 -15H90L675 700ZM25 344C25 106 154 -15 352 -15C568 -15 675 130 675 353C675 588 527 700 352 700C146 700 25 558 25 344ZM504 345C504 201 447 139 374 139C294 139 230 201 230 344C230 463 284 532 374 532C450 532 504 462 504 345Z" glyph-name="Oslash" horiz-adv-x="700" unicode="&#216;" /><glyph d="M515 530 20 -15H90L581 530ZM25 265C25 86 128 -15 303 -15C486 -15 577 94 577 266C577 446 452 540 303 540C130 540 25 429 25 265ZM420 264C420 160 372 121 320 121C262 121 223 165 223 266C223 345 256 392 322 392C381 392 420 339 420 264Z" glyph-name="Oslash.small" horiz-adv-x="601" /><glyph d="M613 700 25 -15H90L675 700ZM25 344C25 106 154 -15 352 -15C568 -15 675 130 675 353C675 588 527 700 352 700C146 700 25 558 25 344ZM504 345C504 201 447 139 374 139C294 139 230 201 230 344C230 463 284 532 374 532C450 532 504 462 504 345ZM252 772 298 730 516 803 413 925Z" glyph-name="Oslashacute" horiz-adv-x="700" unicode="&#510;" /><glyph d="M515 530 20 -15H90L581 530ZM25 265C25 86 128 -15 303 -15C486 -15 577 94 577 266C577 446 452 540 303 540C130 540 25 429 25 265ZM420 264C420 160 372 121 320 121C262 121 223 165 223 266C223 345 256 392 322 392C381 392 420 339 420 264ZM218 641 282 590 459 748 353 843Z" glyph-name="Oslashacute.small" horiz-adv-x="601" /><glyph d="M25 344C25 106 154 -15 352 -15C568 -15 675 130 675 353C675 588 527 700 352 700C146 700 25 558 25 344ZM504 345C504 201 447 139 374 139C294 139 230 201 230 344C230 463 284 532 374 532C450 532 504 462 504 345ZM439 858C388 858 370 920 285 920C203 920 161 852 199 741H237C231 776 238 802 268 802C318 802 337 741 421 741C503 741 544 813 507 920H468C473 886 468 858 439 858Z" glyph-name="Otilde" horiz-adv-x="700" unicode="&#213;" /><glyph d="M25 265C25 86 128 -15 303 -15C486 -15 577 94 577 266C577 446 452 540 303 540C130 540 25 429 25 265ZM420 264C420 160 372 121 320 121C262 121 223 165 223 266C223 345 256 392 322 392C381 392 420 339 420 264ZM147.2119 622H185.2119C179.2119 659 186.2119 687 215.2119 687C265.2119 687 284.2119 622 368.2119 622C449.2119 622 490.2119 699 453.2119 813H414.2119C419.2119 777 414.2119 747 385.2119 747C335.2119 747 317.2119 813 232.2119 813C151.2119 813 109.2119 740 147.2119 622Z" glyph-name="Otilde.small" horiz-adv-x="601" /><glyph d="M60 690V0H251V683L152 555H307C371 555 417 520 417 453C417 382 371 351 307 351H155V216H344C499 216 601 301 601 461C601 595 499 690 352 690Z" glyph-name="P" horiz-adv-x="621" unicode="P" /><glyph d="M55 530V0H240V525L144 404H273C321 404 351 383 351 341C351 297 323 276 271 276H146V153H309C449 153 534 217 534 342C534 459 447 530 319 530Z" glyph-name="P.small" horiz-adv-x="554" /><glyph d="M267 9C273 -93 339 -174 474 -174C567 -174 636 -126 636 -25H592C585 -55 557 -66 526 -66C475 -66 444 -38 444 9ZM25 344C25 106 154 -15 352 -15C568 -15 675 130 675 353C675 588 527 700 352 700C146 700 25 558 25 344ZM504 345C504 201 447 139 374 139C294 139 230 201 230 344C230 463 284 532 374 532C450 532 504 462 504 345Z" glyph-name="Q" horiz-adv-x="700" unicode="Q" /><glyph d="M404 -140C485 -140 549 -102 549 -18H507C501 -40 477 -46 455 -46C417 -46 392 -25 396 8H224C227 -74 285 -140 404 -140ZM25 265C25 82 128 -15 303 -15C486 -15 577 109 577 272C577 437 456 540 303 540C123 540 25 424 25 265ZM420 264C420 160 372 121 320 121C262 121 223 165 223 266C223 345 256 392 322 392C381 392 420 339 420 264Z" glyph-name="Q.small" horiz-adv-x="602" /><glyph d="M612 13V40C583 47 574 68 574 137V186C574 287 514 328 418 328H128V266H305C363 266 378 245 378 176C378 41 408 -9 517 -9C549 -9 594 0 612 13ZM60 690V0H251V683L152 555H309C367 555 404 530 404 472C404 413 369 385 305 385H156V321H333C479 321 588 375 588 510C588 635 486 690 339 690Z" glyph-name="R" horiz-adv-x="637" unicode="R" /><glyph d="M540 30C517 38 508 50 508 111V134C508 221 472 255 381 255H120V194H275C315 194 323 174 323 126C323 22 352 -7 445 -7C473 -7 523 -2 540 6ZM55 530V0H240V525L144 408H276C316 408 341 391 341 352C341 315 320 295 271 295H147V244H294C424 244 517 277 517 388C517 485 439 530 311 530Z" glyph-name="R.small" horiz-adv-x="560" /><glyph d="M612 13V40C583 47 574 68 574 137V186C574 287 514 328 418 328H128V266H305C363 266 378 245 378 176C378 41 408 -9 517 -9C549 -9 594 0 612 13ZM60 690V0H251V683L152 555H309C367 555 404 530 404 472C404 413 369 385 305 385H156V321H333C479 321 588 375 588 510C588 635 486 690 339 690ZM173 772 219 730 437 803 334 925Z" glyph-name="Racute" horiz-adv-x="637" unicode="&#340;" /><glyph d="M540 30C517 38 508 50 508 111V134C508 221 472 255 381 255H120V194H275C315 194 323 174 323 126C323 22 352 -7 445 -7C473 -7 523 -2 540 6ZM55 530V0H240V525L144 408H276C316 408 341 391 341 352C341 315 320 295 271 295H147V244H294C424 244 517 277 517 388C517 485 439 530 311 530ZM161 641 225 590 402 748 296 843Z" glyph-name="Racute.small" horiz-adv-x="550" /><glyph d="M612 13V40C583 47 574 68 574 137V186C574 287 514 328 418 328H128V266H305C363 266 378 245 378 176C378 41 408 -9 517 -9C549 -9 594 0 612 13ZM60 690V0H251V683L152 555H309C367 555 404 530 404 472C404 413 369 385 305 385H156V321H333C479 321 588 375 588 510C588 635 486 690 339 690ZM126 878 267 733H354L494 878L453 925L310 851L167 925Z" glyph-name="Rcaron" horiz-adv-x="637" unicode="&#344;" /><glyph d="M540 30C517 38 508 50 508 111V134C508 221 472 255 381 255H120V194H275C315 194 323 174 323 126C323 22 352 -7 445 -7C473 -7 523 -2 540 6ZM55 530V0H240V525L144 408H276C316 408 341 391 341 352C341 315 320 295 271 295H147V244H294C424 244 517 277 517 388C517 485 439 530 311 530ZM76 787 212 602H308L444 787L393 834L260 724L127 834Z" glyph-name="Rcaron.small" horiz-adv-x="550" /><glyph d="M612 13V40C583 47 574 68 574 137V186C574 287 514 328 418 328H128V266H305C363 266 378 245 378 176C378 41 408 -9 517 -9C549 -9 594 0 612 13ZM60 690V0H251V683L152 555H309C367 555 404 530 404 472C404 413 369 385 305 385H156V321H333C479 321 588 375 588 510C588 635 486 690 339 690ZM234 -235 321 -251 407 -56H263Z" glyph-name="Rcommaaccent" horiz-adv-x="637" unicode="&#342;" /><glyph d="M540 30C517 38 508 50 508 111V134C508 221 472 255 381 255H120V194H275C315 194 323 174 323 126C323 22 352 -7 445 -7C473 -7 523 -2 540 6ZM55 530V0H240V525L144 408H276C316 408 341 391 341 352C341 315 320 295 271 295H147V244H294C424 244 517 277 517 388C517 485 439 530 311 530ZM194 -235 281 -251 367 -56H223Z" glyph-name="Rcommaaccent.small" horiz-adv-x="550" /><glyph d="M37 223C37 76 121 -15 295 -15C449 -15 554 68 554 199C554 337 455 384 370 414C307 437 250 453 250 499C250 537 279 562 334 562C392 562 434 529 443 463H537C556 613 469 700 303 700C150 700 47 607 47 482C47 351 124 302 200 272C271 244 344 233 344 177C344 139 320 113 264 113C187 113 139 141 122 223Z" glyph-name="S" horiz-adv-x="577" unicode="S" /><glyph d="M217 91C156 91 117 116 104 170H30C30 56 99 -15 253 -15C390 -15 483 55 483 161C483 277 393 301 328 323C283 340 236 342 236 379C236 401 251 424 297 424C339 424 368 395 378 353H469C480 469 409 540 260 540C119 540 38 456 38 362C38 252 106 223 162 200C215 179 277 173 277 129C277 109 259 91 217 91Z" glyph-name="S.small" horiz-adv-x="501" /><glyph d="M37 223C37 76 121 -15 295 -15C449 -15 554 68 554 199C554 337 455 384 370 414C307 437 250 453 250 499C250 537 279 562 334 562C392 562 434 529 443 463H537C556 613 469 700 303 700C150 700 47 607 47 482C47 351 124 302 200 272C271 244 344 233 344 177C344 139 320 113 264 113C187 113 139 141 122 223ZM173 772 219 730 437 803 334 925Z" glyph-name="Sacute" horiz-adv-x="577" unicode="&#346;" /><glyph d="M217 91C156 91 117 116 104 170H30C30 56 99 -15 253 -15C390 -15 483 55 483 161C483 277 393 301 328 323C283 340 236 342 236 379C236 401 251 424 297 424C339 424 368 395 378 353H469C480 469 409 540 260 540C119 540 38 456 38 362C38 252 106 223 162 200C215 179 277 173 277 129C277 109 259 91 217 91ZM153 641 217 590 394 748 288 843Z" glyph-name="Sacute.small" horiz-adv-x="501" /><glyph d="M37 223C37 76 121 -15 295 -15C449 -15 554 68 554 199C554 337 455 384 370 414C307 437 250 453 250 499C250 537 279 562 334 562C392 562 434 529 443 463H537C556 613 469 700 303 700C150 700 47 607 47 482C47 351 124 302 200 272C271 244 344 233 344 177C344 139 320 113 264 113C187 113 139 141 122 223ZM101 878 242 733H329L469 878L428 925L285 851L142 925Z" glyph-name="Scaron" horiz-adv-x="577" unicode="&#352;" /><glyph d="M217 91C156 91 117 116 104 170H30C30 56 99 -15 253 -15C390 -15 483 55 483 161C483 277 393 301 328 323C283 340 236 342 236 379C236 401 251 424 297 424C339 424 368 395 378 353H469C480 469 409 540 260 540C119 540 38 456 38 362C38 252 106 223 162 200C215 179 277 173 277 129C277 109 259 91 217 91ZM66 787 202 602H298L434 787L383 834L250 724L117 834Z" glyph-name="Scaron.small" horiz-adv-x="501" /><glyph d="M37 223C37 76 121 -15 295 -15C449 -15 554 68 554 199C554 337 455 384 370 414C307 437 250 453 250 499C250 537 279 562 334 562C392 562 434 529 443 463H537C556 613 469 700 303 700C150 700 47 607 47 482C47 351 124 302 200 272C271 244 344 233 344 177C344 139 320 113 264 113C187 113 139 141 122 223ZM221 -117C213 -169 238 -212 310 -212C362 -212 406 -179 406 -118C406 -50 346 -25 286 -42L310 -40L307 0L267 3L247 -69L267 -85C297 -81 314 -94 314 -117C314 -138 300 -150 283 -150C263 -150 253 -140 253 -117Z" glyph-name="Scedilla" horiz-adv-x="577" unicode="&#350;" /><glyph d="M217 91C156 91 117 116 104 170H30C30 56 99 -15 253 -15C390 -15 483 55 483 161C483 277 393 301 328 323C283 340 236 342 236 379C236 401 251 424 297 424C339 424 368 395 378 353H469C480 469 409 540 260 540C119 540 38 456 38 362C38 252 106 223 162 200C215 179 277 173 277 129C277 109 259 91 217 91ZM181 -117C173 -169 198 -212 270 -212C322 -212 366 -179 366 -118C366 -50 306 -25 246 -42L270 -40L267 0L227 3L207 -69L227 -85C257 -81 274 -94 274 -117C274 -138 260 -150 243 -150C223 -150 213 -140 213 -117Z" glyph-name="Scedilla.small" horiz-adv-x="501" /><glyph d="M206 266 213 272C213 272 198 140 323 140C402 140 443 196 443 315V345C443 482 366 530 287 530C193 530 140 486 118 437H39C54 631 193 700 325 700C521 700 647 564 647 349C647 131 526 -15 319 -15C89 -15 25 141 25 286C25 312 27 337 30 361H576V277Z" glyph-name="Schwa" horiz-adv-x="672" unicode="&#399;" /><glyph d="M525 274C525 436 427 540 247 540C102 540 20 450 20 334H76C82 382 124 417 193 417C303 417 328 343 328 267V240C328 158 289 121 246 121C202 121 191 152 191 182C191 194 193 213 194 219L417 230L419 289H40C35 266 31 220 31 189C31 73 111 -15 261 -15C420 -15 525 114 525 274Z" glyph-name="Schwa.small" horiz-adv-x="545" /><glyph d="M37 223C37 76 121 -15 295 -15C449 -15 554 68 554 199C554 337 455 384 370 414C307 437 250 453 250 499C250 537 279 562 334 562C392 562 434 529 443 463H537C556 613 469 700 303 700C150 700 47 607 47 482C47 351 124 302 200 272C271 244 344 233 344 177C344 139 320 113 264 113C187 113 139 141 122 223ZM106 775 147 728 290 802 433 728 474 775 333 920H246Z" glyph-name="Scircumflex" horiz-adv-x="577" unicode="&#348;" /><glyph d="M217 91C156 91 117 116 104 170H30C30 56 99 -15 253 -15C390 -15 483 55 483 161C483 277 393 301 328 323C283 340 236 342 236 379C236 401 251 424 297 424C339 424 368 395 378 353H469C480 469 409 540 260 540C119 540 38 456 38 362C38 252 106 223 162 200C215 179 277 173 277 129C277 109 259 91 217 91ZM66 639 117 592 250 702 383 592 434 639 298 824H202Z" glyph-name="Scircumflex.small" horiz-adv-x="501" /><glyph d="M37 223C37 76 121 -15 295 -15C449 -15 554 68 554 199C554 337 455 384 370 414C307 437 250 453 250 499C250 537 279 562 334 562C392 562 434 529 443 463H537C556 613 469 700 303 700C150 700 47 607 47 482C47 351 124 302 200 272C271 244 344 233 344 177C344 139 320 113 264 113C187 113 139 141 122 223ZM194 -235 281 -251 367 -56H223Z" glyph-name="Scommaaccent" horiz-adv-x="577" unicode="&#536;" /><glyph d="M217 91C156 91 117 116 104 170H30C30 56 99 -15 253 -15C390 -15 483 55 483 161C483 277 393 301 328 323C283 340 236 342 236 379C236 401 251 424 297 424C339 424 368 395 378 353H469C480 469 409 540 260 540C119 540 38 456 38 362C38 252 106 223 162 200C215 179 277 173 277 129C277 109 259 91 217 91ZM174 -235 261 -251 347 -56H203Z" glyph-name="Scommaaccent.small" horiz-adv-x="501" /><glyph d="M381 0V690H190V0ZM0 690V550H571V690Z" glyph-name="T" horiz-adv-x="571" unicode="T" /><glyph d="M158 530V0H342V530ZM5 530V404H495V530Z" glyph-name="T.small" horiz-adv-x="500" /><glyph d="M90 359V277H481V359ZM381 0V690H190V0ZM0 690V550H571V690Z" glyph-name="Tbar" horiz-adv-x="571" unicode="&#358;" /><glyph d="M80 262V197H420V262ZM158 530V0H342V530ZM5 530V404H495V530Z" glyph-name="Tbar.small" horiz-adv-x="500" /><glyph d="M381 0V690H190V0ZM0 690V550H571V690ZM101 878 242 733H329L469 878L428 925L285 851L142 925Z" glyph-name="Tcaron" horiz-adv-x="571" unicode="&#356;" /><glyph d="M158 530V0H342V530ZM5 530V404H495V530ZM66 787 202 602H298L434 787L383 834L250 724L117 834Z" glyph-name="Tcaron.small" horiz-adv-x="500" /><glyph d="M381 0V690H190V0ZM0 690V550H571V690ZM201 -117C193 -169 218 -212 290 -212C342 -212 386 -179 386 -118C386 -50 326 -25 266 -42L290 -40L287 0L247 3L227 -69L247 -85C277 -81 294 -94 294 -117C294 -138 280 -150 263 -150C243 -150 233 -140 233 -117Z" glyph-name="Tcedilla" horiz-adv-x="571" unicode="&#354;" /><glyph d="M158 530V0H342V530ZM5 530V404H495V530ZM164 -117C156 -169 181 -212 253 -212C305 -212 349 -179 349 -118C349 -50 289 -25 229 -42L253 -40L250 0L210 3L190 -69L210 -85C240 -81 257 -94 257 -117C257 -138 243 -150 226 -150C206 -150 196 -140 196 -117Z" glyph-name="Tcedilla.small" horiz-adv-x="500" /><glyph d="M381 0V690H190V0ZM0 690V550H571V690ZM194 -235 281 -251 367 -56H223Z" glyph-name="Tcommaaccent" horiz-adv-x="571" unicode="&#538;" /><glyph d="M158 530V0H342V530ZM5 530V404H495V530ZM155 -235 242 -251 328 -56H184Z" glyph-name="Tcommaaccent.small" horiz-adv-x="500" /><glyph d="M60 590V0H251V583L152 455H307C371 455 417 416 417 353C417 286 371 251 307 251H155V116H344C499 116 601 201 601 361C601 495 499 590 352 590ZM61 690V0H252V690Z" glyph-name="Thorn" horiz-adv-x="621" unicode="&#222;" /><glyph d="M268 324C316 324 346 303 346 261C346 217 318 196 266 196H235V324ZM235 0V73H304C444 73 529 137 529 262C529 379 442 450 314 450H235V530H50V0Z" glyph-name="Thorn.small" horiz-adv-x="549" /><glyph d="M60 313C60 120 109 -15 352 -15C545 -15 616 122 616 324V690H476V336C476 187 450 140 374 140C291 140 266 194 266 345V690H60Z" glyph-name="U" horiz-adv-x="676" unicode="U" /><glyph d="M50 240C50 89 92 -15 305 -15C470 -15 533 90 533 249V530H398V259C398 145 377 121 326 121C269 121 250 152 250 267V530H50Z" glyph-name="U.small" horiz-adv-x="583" /><glyph d="M60 313C60 120 109 -15 352 -15C545 -15 616 122 616 324V690H476V336C476 187 450 140 374 140C291 140 266 194 266 345V690H60ZM263 772 309 730 527 803 424 925Z" glyph-name="Uacute" horiz-adv-x="676" unicode="&#218;" /><glyph d="M50 240C50 89 92 -15 305 -15C470 -15 533 90 533 249V530H398V259C398 145 377 121 326 121C269 121 250 152 250 267V530H50ZM231 641 295 590 472 748 366 843Z" glyph-name="Uacute.small" horiz-adv-x="573" /><glyph d="M60 313C60 120 109 -15 352 -15C545 -15 616 122 616 324V690H476V336C476 187 450 140 374 140C291 140 266 194 266 345V690H60ZM210 919C200 816 249 740 370 740C490 740 539 816 529 919H476C467 884 450 857 370 857C288 857 272 884 263 919Z" glyph-name="Ubreve" horiz-adv-x="676" unicode="&#364;" /><glyph d="M50 240C50 89 92 -15 305 -15C470 -15 533 90 533 249V530H398V259C398 145 377 121 326 121C269 121 250 152 250 267V530H50ZM318 608C438 608 487 694 477 812H424C415 772 398 730 318 730C237 730 221 772 212 812H159C149 694 198 608 318 608Z" glyph-name="Ubreve.small" horiz-adv-x="573" /><glyph d="M60 313C60 120 109 -15 352 -15C545 -15 616 122 616 324V690H476V336C476 187 450 140 374 140C291 140 266 194 266 345V690H60ZM184 775 225 728 368 802 511 728 552 775 411 920H324Z" glyph-name="Ucircumflex" horiz-adv-x="676" unicode="&#219;" /><glyph d="M50 240C50 89 92 -15 305 -15C470 -15 533 90 533 249V530H398V259C398 145 377 121 326 121C269 121 250 152 250 267V530H50ZM132 639 183 592 316 702 449 592 500 639 364 824H268Z" glyph-name="Ucircumflex.small" horiz-adv-x="573" /><glyph d="M60 313C60 120 109 -15 352 -15C545 -15 616 122 616 324V690H476V336C476 187 450 140 374 140C291 140 266 194 266 345V690H60ZM209 744H341V890H209ZM399 744H531V890H399Z" glyph-name="Udieresis" horiz-adv-x="676" unicode="&#220;" /><glyph d="M50 240C50 89 92 -15 305 -15C470 -15 533 90 533 249V530H398V259C398 145 377 121 326 121C269 121 250 152 250 267V530H50ZM157 644H289V790H157ZM347 644H479V790H347Z" glyph-name="Udieresis.small" horiz-adv-x="573" /><glyph d="M60 313C60 120 109 -15 352 -15C545 -15 616 122 616 324V690H476V336C476 187 450 140 374 140C291 140 266 194 266 345V690H60ZM223 803 441 730 487 772 326 925Z" glyph-name="Ugrave" horiz-adv-x="676" unicode="&#217;" /><glyph d="M50 240C50 89 92 -15 305 -15C470 -15 533 90 533 249V530H398V259C398 145 377 121 326 121C269 121 250 152 250 267V530H50ZM161 748 338 590 402 641 267 843Z" glyph-name="Ugrave.small" horiz-adv-x="573" /><glyph d="M60 313C60 120 109 -15 352 -15C545 -15 616 122 616 324V690H476V336C476 187 450 140 374 140C291 140 266 194 266 345V690H60ZM178 777 240 718 413 869 336 950ZM388 777 450 718 623 869 546 950Z" glyph-name="Uhungarumlaut" horiz-adv-x="676" unicode="&#368;" /><glyph d="M50 240C50 89 92 -15 305 -15C470 -15 533 90 533 249V530H398V259C398 145 377 121 326 121C269 121 250 152 250 267V530H50ZM135 631 220 590 347 794 230 842ZM335 631 420 590 554 780 442 836Z" glyph-name="Uhungarumlaut.small" horiz-adv-x="573" /><glyph d="M60 313C60 120 109 -15 352 -15C545 -15 616 122 616 324V690H476V336C476 187 450 140 374 140C291 140 266 194 266 345V690H60ZM212 885V773H528V885Z" glyph-name="Umacron" horiz-adv-x="676" unicode="&#362;" /><glyph d="M50 240C50 89 92 -15 305 -15C470 -15 533 90 533 249V530H398V259C398 145 377 121 326 121C269 121 250 152 250 267V530H50ZM140 785V673H456V785Z" glyph-name="Umacron.small" horiz-adv-x="573" /><glyph d="M60 313C60 120 109 -15 352 -15C545 -15 616 122 616 324V690H476V336C476 187 450 140 374 140C291 140 266 194 266 345V690H60ZM375 -137C375 -188 406 -229 474 -229C553 -229 577 -176 572 -115H537C537 -131 531 -151 514 -151C492 -151 487 -136 487 -119C487 -60 511 15 556 79L543 80C469 12 375 -49 375 -137Z" glyph-name="Uogonek" horiz-adv-x="676" unicode="&#370;" /><glyph d="M50 240C50 89 92 -15 305 -15C470 -15 533 90 533 249V530H398V259C398 145 377 121 326 121C269 121 250 152 250 267V530H50ZM314 -137C314 -188 345 -229 413 -229C492 -229 516 -176 511 -115H476C476 -131 470 -151 453 -151C431 -151 426 -136 426 -119C426 -60 450 15 495 79L482 80C408 12 314 -49 314 -137Z" glyph-name="Uogonek.small" horiz-adv-x="573" /><glyph d="M60 313C60 120 109 -15 352 -15C545 -15 616 122 616 324V690H476V336C476 187 450 140 374 140C291 140 266 194 266 345V690H60ZM236 841C236 768 293 710 376 710C462 710 517 768 517 841C517 914 462 971 376 971C295 971 236 914 236 841ZM422 827C422 800 402 779 377 779C349 779 330 800 330 827C330 855 349 876 377 876C402 876 422 855 422 827Z" glyph-name="Uring" horiz-adv-x="676" unicode="&#366;" /><glyph d="M50 240C50 89 92 -15 305 -15C470 -15 533 90 533 249V530H398V259C398 145 377 121 326 121C269 121 250 152 250 267V530H50ZM177 743C177 670 234 612 317 612C403 612 458 670 458 743C458 816 403 873 317 873C236 873 177 816 177 743ZM363 729C363 702 343 681 318 681C290 681 271 702 271 729C271 757 290 778 318 778C343 778 363 757 363 729Z" glyph-name="Uring.small" horiz-adv-x="573" /><glyph d="M60 313C60 120 109 -15 352 -15C545 -15 616 122 616 324V690H476V336C476 187 450 140 374 140C291 140 266 194 266 345V690H60ZM457 858C406 858 388 920 303 920C221 920 179 852 217 741H255C249 776 256 802 286 802C336 802 355 741 439 741C521 741 562 813 525 920H486C491 886 486 858 457 858Z" glyph-name="Utilde" horiz-adv-x="676" unicode="&#360;" /><glyph d="M50 240C50 89 92 -15 305 -15C470 -15 533 90 533 249V530H398V259C398 145 377 121 326 121C269 121 250 152 250 267V530H50ZM155 622H193C187 659 194 687 223 687C273 687 292 622 376 622C457 622 498 699 461 813H422C427 777 422 747 393 747C343 747 325 813 240 813C159 813 117 740 155 622Z" glyph-name="Utilde.small" horiz-adv-x="573" /><glyph d="M5 690 227 0H425L645 690H504L355 194H376L246 690Z" glyph-name="V" horiz-adv-x="645" unicode="V" /><glyph d="M5 530 187 0H379L559 530H413L309 171H331L239 530Z" glyph-name="V.small" horiz-adv-x="564" /><glyph d="M10 690 211 0H402L513 356H501L613 0H804L997 690H849L722 209H741L617 690H476L327 173L366 145L231 690Z" glyph-name="W" horiz-adv-x="1002" unicode="W" /><glyph d="M5 530 175 0H351L443 249H433L526 0H702L865 530H726L627 184H643L545 530H417L304 152L341 127L229 530Z" glyph-name="W.small" horiz-adv-x="870" /><glyph d="M10 690 211 0H402L513 356H501L613 0H804L997 690H849L722 209H741L617 690H476L327 173L366 145L231 690ZM493 772 539 730 757 803 654 925Z" glyph-name="Wacute" horiz-adv-x="1002" unicode="&#7810;" /><glyph d="M5 530 175 0H351L443 249H433L526 0H702L865 530H726L627 184H643L545 530H417L304 152L341 127L229 530ZM431 641 495 590 672 748 566 843Z" glyph-name="Wacute.small" horiz-adv-x="870" /><glyph d="M10 690 211 0H402L513 356H501L613 0H804L997 690H849L722 209H741L617 690H476L327 173L366 145L231 690ZM370 775 411 728 554 802 697 728 738 775 597 920H510Z" glyph-name="Wcircumflex" horiz-adv-x="1002" unicode="&#372;" /><glyph d="M5 530 175 0H351L443 249H433L526 0H702L865 530H726L627 184H643L545 530H417L304 152L341 127L229 530ZM295 639 346 592 479 702 612 592 663 639 527 824H431Z" glyph-name="Wcircumflex.small" horiz-adv-x="870" /><glyph d="M10 690 211 0H402L513 356H501L613 0H804L997 690H849L722 209H741L617 690H476L327 173L366 145L231 690ZM379 744H511V890H379ZM569 744H701V890H569Z" glyph-name="Wdieresis" horiz-adv-x="1002" unicode="&#7812;" /><glyph d="M5 530 175 0H351L443 249H433L526 0H702L865 530H726L627 184H643L545 530H417L304 152L341 127L229 530ZM319 644H451V790H319ZM509 644H641V790H509Z" glyph-name="Wdieresis.small" horiz-adv-x="870" /><glyph d="M10 690 211 0H402L513 356H501L613 0H804L997 690H849L722 209H741L617 690H476L327 173L366 145L231 690ZM373 803 591 730 637 772 476 925Z" glyph-name="Wgrave" horiz-adv-x="1002" unicode="&#7808;" /><glyph d="M5 530 175 0H351L443 249H433L526 0H702L865 530H726L627 184H643L545 530H417L304 152L341 127L229 530ZM296 748 473 590 537 641 402 843Z" glyph-name="Wgrave.small" horiz-adv-x="870" /><glyph d="M1 690 201 320 251 280 385 0H637L404 424L360 472L253 690ZM443 690 308 450 239 411 0 0H153L322 316L387 356L594 690Z" glyph-name="X" horiz-adv-x="637" unicode="X" /><glyph d="M11 530 176 243 232 208 329 0H569L373 334L326 376L252 530ZM383 530 286 354 206 323 5 0H159L293 240L372 272L538 530Z" glyph-name="X.small" horiz-adv-x="574" /><glyph d="M398 261 220 268 -6 690H226L364 411H337L467 690H610ZM217 306H408V0H217Z" glyph-name="Y" horiz-adv-x="596" unicode="Y" /><glyph d="M367 186 195 192 5 530H224L329 318H309L410 530H547ZM192 224H377V0H192Z" glyph-name="Y.small" horiz-adv-x="552" /><glyph d="M398 261 220 268 -6 690H226L364 411H337L467 690H610ZM217 306H408V0H217ZM243 772 289 730 507 803 404 925Z" glyph-name="Yacute" horiz-adv-x="596" unicode="&#221;" /><glyph d="M367 186 195 192 5 530H224L329 318H309L410 530H547ZM192 224H377V0H192ZM251 641 315 590 492 748 386 843Z" glyph-name="Yacute.small" horiz-adv-x="542" /><glyph d="M398 261 220 268 -6 690H226L364 411H337L467 690H610ZM217 306H408V0H217ZM155 775 196 728 339 802 482 728 523 775 382 920H295Z" glyph-name="Ycircumflex" horiz-adv-x="596" unicode="&#374;" /><glyph d="M367 186 195 192 5 530H224L329 318H309L410 530H547ZM192 224H377V0H192ZM121 639 172 592 305 702 438 592 489 639 353 824H257Z" glyph-name="Ycircumflex.small" horiz-adv-x="542" /><glyph d="M398 261 220 268 -6 690H226L364 411H337L467 690H610ZM217 306H408V0H217ZM169 744H301V890H169ZM359 744H491V890H359Z" glyph-name="Ydieresis" horiz-adv-x="596" unicode="&#376;" /><glyph d="M367 186 195 192 5 530H224L329 318H309L410 530H547ZM192 224H377V0H192ZM151 644H283V790H151ZM341 644H473V790H341Z" glyph-name="Ydieresis.small" horiz-adv-x="542" /><glyph d="M398 261 220 268 -6 690H226L364 411H337L467 690H610ZM217 306H408V0H217ZM183 803 401 730 447 772 286 925Z" glyph-name="Ygrave" horiz-adv-x="596" unicode="&#7922;" /><glyph d="M367 186 195 192 5 530H224L329 318H309L410 530H547ZM192 224H377V0H192ZM141 748 318 590 382 641 247 843Z" glyph-name="Ygrave.small" horiz-adv-x="542" /><glyph d="M35 126V0H543V135H81L211 63L540 564V690H56V555H504L376 657Z" glyph-name="Z" horiz-adv-x="578" unicode="Z" /><glyph d="M30 110V0H471V117H75L190 55L471 420V530H43V413H436L324 501Z" glyph-name="Z.small" horiz-adv-x="501" /><glyph d="M35 126V0H543V135H81L211 63L540 564V690H56V555H504L376 657ZM203 772 249 730 467 803 364 925Z" glyph-name="Zacute" horiz-adv-x="578" unicode="&#377;" /><glyph d="M30 110V0H471V117H75L190 55L471 420V530H43V413H436L324 501ZM161 641 225 590 402 748 296 843Z" glyph-name="Zacute.small" horiz-adv-x="501" /><glyph d="M35 126V0H543V135H81L211 63L540 564V690H56V555H504L376 657ZM126 878 267 733H354L494 878L453 925L310 851L167 925Z" glyph-name="Zcaron" horiz-adv-x="578" unicode="&#381;" /><glyph d="M30 110V0H471V117H75L190 55L471 420V530H43V413H436L324 501ZM84 787 220 602H316L452 787L401 834L268 724L135 834Z" glyph-name="Zcaron.small" horiz-adv-x="501" /><glyph d="M35 126V0H543V135H81L211 63L540 564V690H56V555H504L376 657ZM209 744H391V890H209Z" glyph-name="Zdotaccent" horiz-adv-x="578" unicode="&#379;" /><glyph d="M30 110V0H471V117H75L190 55L471 420V530H43V413H436L324 501ZM177 644H359V790H177Z" glyph-name="Zdotaccent.small" horiz-adv-x="501" /><glyph d="M280 112C280 12 338 -11 414 -11C442 -11 475 -5 487 1V25C472 35 465 50 461 64C454 89 452 121 452 168C452 206 452 268 452 311C452 432 382 500 257 500C112 500 55 407 55 308H102C113 339 144 373 193 373C250 373 280 344 280 275C280 232 280 161 280 112ZM20 120C20 49 60 -15 157 -15C294 -15 320 117 320 193H280C280 139 272 99 232 99C205 99 192 116 192 142C192 182 212 204 249 204C271 204 283 198 288 195L291 249C276 266 230 272 201 272C64 272 20 197 20 120Z" glyph-name="a" horiz-adv-x="497" unicode="a" /><glyph d="M174 471C174 410 212 396 261 396C278 396 300 398 308 401L309 417C298 424 295 435 293 444C291 460 290 480 290 507C290 529 290 560 290 586C290 660 245 700 166 700C73 700 37 644 37 584H68C75 600 93 619 122 619C156 619 174 603 174 563C174 537 174 500 174 471ZM13 475C13 432 38 394 100 394C186 394 200 473 200 517H174C174 487 171 467 151 467C136 467 130 476 130 489C130 511 140 523 159 523C172 523 177 520 179 518L181 553C172 562 144 566 127 566C40 566 13 521 13 475Z" glyph-name="a.superior" horiz-adv-x="317" /><glyph d="M280 112C280 12 338 -11 414 -11C442 -11 475 -5 487 1V25C472 35 465 50 461 64C454 89 452 121 452 168C452 206 452 268 452 311C452 432 382 500 257 500C112 500 55 407 55 308H102C113 339 144 373 193 373C250 373 280 344 280 275C280 232 280 161 280 112ZM20 120C20 49 60 -15 157 -15C294 -15 320 117 320 193H280C280 139 272 99 232 99C205 99 192 116 192 142C192 182 212 204 249 204C271 204 283 198 288 195L291 249C276 266 230 272 201 272C64 272 20 197 20 120ZM181 591 245 540 422 698 316 793Z" glyph-name="aacute" horiz-adv-x="497" unicode="&#225;" /><glyph d="M280 112C280 12 338 -11 414 -11C442 -11 475 -5 487 1V25C472 35 465 50 461 64C454 89 452 121 452 168C452 206 452 268 452 311C452 432 382 500 257 500C112 500 55 407 55 308H102C113 339 144 373 193 373C250 373 280 344 280 275C280 232 280 161 280 112ZM20 120C20 49 60 -15 157 -15C294 -15 320 117 320 193H280C280 139 272 99 232 99C205 99 192 116 192 142C192 182 212 204 249 204C271 204 283 198 288 195L291 249C276 266 230 272 201 272C64 272 20 197 20 120ZM280 558C400 558 449 644 439 762H386C377 722 360 680 280 680C199 680 183 722 174 762H121C111 644 160 558 280 558Z" glyph-name="abreve" horiz-adv-x="497" unicode="&#259;" /><glyph d="M280 112C280 12 338 -11 414 -11C442 -11 475 -5 487 1V25C472 35 465 50 461 64C454 89 452 121 452 168C452 206 452 268 452 311C452 432 382 500 257 500C112 500 55 407 55 308H102C113 339 144 373 193 373C250 373 280 344 280 275C280 232 280 161 280 112ZM20 120C20 49 60 -15 157 -15C294 -15 320 117 320 193H280C280 139 272 99 232 99C205 99 192 116 192 142C192 182 212 204 249 204C271 204 283 198 288 195L291 249C276 266 230 272 201 272C64 272 20 197 20 120ZM83 589 134 542 267 652 400 542 451 589 315 774H219Z" glyph-name="acircumflex" horiz-adv-x="497" unicode="&#226;" /><glyph d="M131 591 195 540 372 698 266 793Z" glyph-name="acute" horiz-adv-x="500" unicode="&#180;" /><glyph d="M113 772 159 730 377 803 274 925Z" glyph-name="acute.cap" horiz-adv-x="500" /><glyph d="M280 112C280 12 338 -11 414 -11C442 -11 475 -5 487 1V25C472 35 465 50 461 64C454 89 452 121 452 168C452 206 452 268 452 311C452 432 382 500 257 500C112 500 55 407 55 308H102C113 339 144 373 193 373C250 373 280 344 280 275C280 232 280 161 280 112ZM20 120C20 49 60 -15 157 -15C294 -15 320 117 320 193H280C280 139 272 99 232 99C205 99 192 116 192 142C192 182 212 204 249 204C271 204 283 198 288 195L291 249C276 266 230 272 201 272C64 272 20 197 20 120ZM110 594H242V740H110ZM300 594H432V740H300Z" glyph-name="adieresis" horiz-adv-x="497" unicode="&#228;" /><glyph d="M293 223C293 85 352 -15 515 -15C641 -15 712 69 712 176H664C658 132 622 102 562 102C466 102 451 168 451 238V263C451 339 482 373 516 373C554 373 560 345 560 317C560 306 558 288 557 283L367 273L365 218H695C699 239 703 290 703 319C703 423 636 500 514 500C364 500 293 371 293 223ZM425 193V271C425 392 381 500 243 500C107 500 55 408 55 309H102C113 340 144 373 193 373C250 373 280 344 280 275V257C260 268 225 272 201 272C64 272 20 197 20 120C20 49 61 -15 180 -15C340 -15 425 127 425 193ZM232 99C205 99 192 116 192 142C192 182 212 204 249 204C263 204 273 201 280 199V193C280 139 272 99 232 99Z" glyph-name="ae" horiz-adv-x="737" unicode="&#230;" /><glyph d="M293 223C293 85 352 -15 515 -15C641 -15 712 69 712 176H664C658 132 622 102 562 102C466 102 451 168 451 238V263C451 339 482 373 516 373C554 373 560 345 560 317C560 306 558 288 557 283L367 273L365 218H695C699 239 703 290 703 319C703 423 636 500 514 500C364 500 293 371 293 223ZM425 193V271C425 392 381 500 243 500C107 500 55 408 55 309H102C113 340 144 373 193 373C250 373 280 344 280 275V257C260 268 225 272 201 272C64 272 20 197 20 120C20 49 61 -15 180 -15C340 -15 425 127 425 193ZM232 99C205 99 192 116 192 142C192 182 212 204 249 204C263 204 273 201 280 199V193C280 139 272 99 232 99ZM325 591 389 540 566 698 460 793Z" glyph-name="aeacute" horiz-adv-x="737" unicode="&#509;" /><glyph d="M280 112C280 12 338 -11 414 -11C442 -11 475 -5 487 1V25C472 35 465 50 461 64C454 89 452 121 452 168C452 206 452 268 452 311C452 432 382 500 257 500C112 500 55 407 55 308H102C113 339 144 373 193 373C250 373 280 344 280 275C280 232 280 161 280 112ZM20 120C20 49 60 -15 157 -15C294 -15 320 117 320 193H280C280 139 272 99 232 99C205 99 192 116 192 142C192 182 212 204 249 204C271 204 283 198 288 195L291 249C276 266 230 272 201 272C64 272 20 197 20 120ZM121 698 298 540 362 591 227 793Z" glyph-name="agrave" horiz-adv-x="497" unicode="&#224;" /><glyph d="M280 112C280 12 338 -11 414 -11C442 -11 475 -5 487 1V25C472 35 465 50 461 64C454 89 452 121 452 168C452 206 452 268 452 311C452 432 382 500 257 500C112 500 55 407 55 308H102C113 339 144 373 193 373C250 373 280 344 280 275C280 232 280 161 280 112ZM20 120C20 49 60 -15 157 -15C294 -15 320 117 320 193H280C280 139 272 99 232 99C205 99 192 116 192 142C192 182 212 204 249 204C271 204 283 198 288 195L291 249C276 266 230 272 201 272C64 272 20 197 20 120ZM111 735V623H427V735Z" glyph-name="amacron" horiz-adv-x="497" unicode="&#257;" /><glyph d="M327 201C272 312 188 436 188 516C188 650 304 700 417 700C545 700 603 624 603 554C603 430 474 382 364 362C258 343 229 292 229 226C229 159 271 115 343 115C445 115 599 158 622 359H693C693 124 488 -15 313 -15C127 -15 30 61 30 186C30 371 226 397 336 431C410 454 478 481 478 541C478 576 461 597 430 597C396 597 376 572 376 532C376 462 454 369 510 260C573 138 592 89 659 89C700 89 725 110 730 158H785C785 48 724 -15 603 -15C512 -15 416 21 327 201Z" glyph-name="ampersand" horiz-adv-x="805" unicode="&amp;" /><glyph d="M273 147C223 233 156 318 156 392C156 496 259 540 355 540C453 540 502 489 502 421C502 331 412 300 290 271C218 254 195 216 195 173C195 121 228 87 285 87C379 87 504 131 530 281H593C593 113 405 -15 251 -15C95 -15 25 42 25 139C25 266 183 306 277 330C352 349 405 371 405 413C405 440 391 455 368 455C340 455 326 435 326 410C326 365 390 283 438 198C492 104 510 62 564 62C598 62 613 87 617 124H668C668 39 610 -15 509 -15C438 -15 353 9 273 147Z" glyph-name="ampersand.small" horiz-adv-x="683" /><glyph d="M288 -137C288 -188 319 -229 387 -229C466 -229 490 -176 485 -115H450C450 -131 442 -151 425 -151C402 -151 397 -132 397 -115C397 -56 421 -19 475 -3L440 15C384 -9 288 -49 288 -137ZM280 112C280 12 338 -11 414 -11C442 -11 475 -5 487 1V25C472 35 465 50 461 64C454 89 452 121 452 168C452 206 452 268 452 311C452 432 382 500 257 500C112 500 55 407 55 308H102C113 339 144 373 193 373C250 373 280 344 280 275C280 232 280 161 280 112ZM20 120C20 49 60 -15 157 -15C294 -15 320 117 320 193H280C280 139 272 99 232 99C205 99 192 116 192 142C192 182 212 204 249 204C271 204 283 198 288 195L291 249C276 266 230 272 201 272C64 272 20 197 20 120Z" glyph-name="aogonek" horiz-adv-x="497" unicode="&#261;" /><glyph d="M170 341H86C86 451 126 519 225 519C275 519 306 506 334 493C359 482 382 471 414 471C452 471 466 484 469 519H553C553 409 514 341 414 341C373 341 344 350 320 361C288 374 263 389 225 389C187 389 174 369 170 341ZM170 107H86C86 217 126 285 225 285C270 285 300 274 327 262C355 250 379 237 414 237C452 237 466 250 469 285H553C553 175 514 107 414 107C367 107 337 119 310 131C283 143 259 155 225 155C187 155 174 135 170 107Z" glyph-name="approxequal" horiz-adv-x="620" unicode="&#8776;" /><glyph d="M280 112C280 12 338 -11 414 -11C442 -11 475 -5 487 1V25C472 35 465 50 461 64C454 89 452 121 452 168C452 206 452 268 452 311C452 432 382 500 257 500C112 500 55 407 55 308H102C113 339 144 373 193 373C250 373 280 344 280 275C280 232 280 161 280 112ZM20 120C20 49 60 -15 157 -15C294 -15 320 117 320 193H280C280 139 272 99 232 99C205 99 192 116 192 142C192 182 212 204 249 204C271 204 283 198 288 195L291 249C276 266 230 272 201 272C64 272 20 197 20 120ZM129 693C129 620 186 562 269 562C355 562 410 620 410 693C410 766 355 823 269 823C188 823 129 766 129 693ZM315 679C315 652 295 631 270 631C242 631 223 652 223 679C223 707 242 728 270 728C295 728 315 707 315 679Z" glyph-name="aring" horiz-adv-x="497" unicode="&#229;" /><glyph d="M280 112C280 12 338 -11 414 -11C442 -11 475 -5 487 1V25C472 35 465 50 461 64C454 89 452 121 452 168C452 206 452 268 452 311C452 432 382 500 257 500C112 500 55 407 55 308H102C113 339 144 373 193 373C250 373 280 344 280 275C280 232 280 161 280 112ZM20 120C20 49 60 -15 157 -15C294 -15 320 117 320 193H280C280 139 272 99 232 99C205 99 192 116 192 142C192 182 212 204 249 204C271 204 283 198 288 195L291 249C276 266 230 272 201 272C64 272 20 197 20 120ZM126 668C126 595 183 537 266 537C352 537 407 595 407 668C407 741 352 798 266 798C185 798 126 741 126 668ZM312 654C312 627 292 606 267 606C239 606 220 627 220 654C220 682 239 703 267 703C292 703 312 682 312 654ZM138 877 184 835 402 908 299 1030Z" glyph-name="aringacute" horiz-adv-x="497" unicode="&#507;" /><glyph d="M220 690H355V72H220ZM224 87 448 331 536 239 288 -10 40 239 128 331 352 87Z" glyph-name="arrowdown" horiz-adv-x="576" unicode="&#8595;" /><glyph d="M575 399 480 495 90 105 186 9ZM80 0H431V128L103 113L193 23L208 351H80Z" glyph-name="arrowdownleft" horiz-adv-x="621" unicode="&#8601;" /><glyph d="M46 399 141 495 531 105 435 9ZM541 0H190V128L518 113L428 23L413 351H541Z" glyph-name="arrowdownright" horiz-adv-x="621" unicode="&#8600;" /><glyph d="M653 330V195H102V330ZM269 510 361 422 117 198V326L361 102L269 14L20 262Z" glyph-name="arrowleft" horiz-adv-x="703" unicode="&#8592;" /><glyph d="M50 330V195H601V330ZM434 510 342 422 586 198V326L342 102L434 14L683 262Z" glyph-name="arrowright" horiz-adv-x="703" unicode="&#8594;" /><glyph d="M356 0H221V618H356ZM352 603 128 359 40 451 288 700 536 451 448 359 224 603Z" glyph-name="arrowup" horiz-adv-x="576" unicode="&#8593;" /><glyph d="M575 81 480 -15 90 375 186 471ZM80 480H431V352L103 367L193 457L208 129H80Z" glyph-name="arrowupleft" horiz-adv-x="621" unicode="&#8598;" /><glyph d="M46 81 141 -15 531 375 435 471ZM541 480H190V352L518 367L428 457L413 129H541Z" glyph-name="arrowupright" horiz-adv-x="621" unicode="&#8599;" /><glyph d="M229 690 63 418 144 371 285 571H269L410 371L491 418L325 690Z" glyph-name="asciicircum" horiz-adv-x="620" unicode="^" /><glyph d="M215 414C262 414 292.25 399.5 319.25 385C346.25 370.5 370 356 404 356C452 356 459 379 459 414H543C543 304 514 217 404 217C357 217 326.75 231.5 299.75 246C272.75 260.5 249 275 215 275C168 275 160 245 160 217H76C76 327 105 414 215 414Z" glyph-name="asciitilde" horiz-adv-x="620" unicode="~" /><glyph d="M416 388 259 491 436 464 395 631 252 527 319 690H147L214 527L71 631L30 464L207 491L50 388L191 290L233 467L275 290Z" glyph-name="asterisk" horiz-adv-x="466" unicode="*" /><glyph d="M556 330C556 182 506 54 382 54C295 54 237 110 237 232C237 351 305 490 445 490C534 490 556 433 556 330ZM507 307C507 343 493 372 461 372C398 372 384 290 384 238C384 200 393 172 425 172C476 172 507 233 507 307ZM708 33 772 -48C724 -95 617 -164 461 -164C164 -164 30 6 30 247C30 472 184 700 483 700C732 700 874 548 874 345C874 137 727 54 616 54C531 54 504 98 504 168C504 187 503 210 508 238L538 419L558 480H667L646 366L625 252C610 169 619 149 645 149C692 149 756 204 756 345C756 500 668 594 481 594C247 594 154 412 154 247C154 43 268 -59 472 -59C582 -59 666 -7 708 33Z" glyph-name="at" horiz-adv-x="904" unicode="@" /><glyph d="M556 387C556 239 506 111 382 111C295 111 237 167 237 289C237 408 305 547 445 547C534 547 556 490 556 387ZM507 364C507 400 493 429 461 429C398 429 384 347 384 295C384 257 393 229 425 229C476 229 507 290 507 364ZM708 90 772 9C724 -38 617 -107 461 -107C164 -107 30 63 30 304C30 529 184 757 483 757C732 757 874 605 874 402C874 194 727 111 616 111C531 111 504 155 504 225C504 244 503 267 508 295L538 476L558 537H667L646 423L625 309C610 226 619 206 645 206C692 206 756 261 756 402C756 557 668 651 481 651C247 651 154 469 154 304C154 100 268 -2 472 -2C582 -2 666 50 708 90Z" glyph-name="at.cap" horiz-adv-x="904" /><glyph d="M477 310C477 189 435 84 329 84C255 84 206 130 206 230C206 327 263 439 382 439C458 439 477 394 477 310ZM437 289C437 318 426 340 399 340C351 340 338 277 338 235C338 207 345 184 371 184C411 184 437 232 437 289ZM538 255C533.9587 232.436 532.1857 215.7697 532.4138 203.5879C532.8629 179.598 541.0723 173 555 173C595 173 646 217 646 318C646 444 572 525 413 525C223 525 139 377 139 242C139 76 232 -2 406 -2C499 -2 567 36 606 67L652 -8C611 -47 529 -95 396 -95C137 -95 30 46 30 242C30 426 153 611 415 611C639 611 749 487 749 322C749 147 621 84 528 84C455 84 433 121 433 177C433 192 432 212 436 234L461 383L478 432H571Z" glyph-name="at.small" horiz-adv-x="779" /><glyph d="M280 112C280 12 338 -11 414 -11C442 -11 475 -5 487 1V25C472 35 465 50 461 64C454 89 452 121 452 168C452 206 452 268 452 311C452 432 382 500 257 500C112 500 55 407 55 308H102C113 339 144 373 193 373C250 373 280 344 280 275C280 232 280 161 280 112ZM20 120C20 49 60 -15 157 -15C294 -15 320 117 320 193H280C280 139 272 99 232 99C205 99 192 116 192 142C192 182 212 204 249 204C271 204 283 198 288 195L291 249C276 266 230 272 201 272C64 272 20 197 20 120ZM107 572H145C139 609 146 637 175 637C225 637 244 572 328 572C409 572 450 649 413 763H374C379 727 374 697 345 697C295 697 277 763 192 763C111 763 69 690 107 572Z" glyph-name="atilde" horiz-adv-x="497" unicode="&#227;" /><glyph d="M206 250C206 76 238 -15 359 -15C469 -15 548 95 548 246C548 415 464 500 359 500C220 500 206 352 206 250ZM362 226C362 167 342 111 297 111C246 111 232 173 232 227C232 324 257 358 296 358C342 358 362 317 362 226ZM50 700V0H203L225 137L232 160V710Z" glyph-name="b" horiz-adv-x="573" unicode="b" /><glyph d="M137 552C137 449 153 394 231 394C299 394 348 460 348 549C348 649 297 700 231 700C142 700 137 609 137 552ZM223 537C223 503 214 474 190 474C159 474 155 511 155 537C155 592 168 609 189 609C216 609 223 587 223 537ZM32 817V403H135L150 482L155 495V824Z" glyph-name="b.superior" horiz-adv-x="365" /><glyph d="M175 710H0L278 -88H453Z" glyph-name="backslash" horiz-adv-x="453" unicode="\" /><glyph d="M224 -153H70V740H224Z" glyph-name="bar" horiz-adv-x="294" unicode="|" /><glyph d="M299 123C299 244 158 255 158 255V243C158 243 299 254 299 375C299 465 289 504 289 592C289 649 310 664 351 664H377V748H291C193 748 103 706 103 602C103 547 113 456 113 375C113 303 50 285 50 285V213C50 213 113 195 113 123C113 42 103 -49 103 -104C103 -208 193 -250 291 -250H377V-166H351C310 -166 289 -151 289 -94C289 -6 299 33 299 123Z" glyph-name="braceleft" horiz-adv-x="387" unicode="{" /><glyph d="M299 193C299 314 158 325 158 325V313C158 313 299 324 299 445C299 535 289 574 289 662C289 719 310 734 351 734H377V818H291C193 818 103 776 103 672C103 617 113 526 113 445C113 373 50 355 50 355V283C50 283 113 265 113 193C113 112 103 21 103 -34C103 -138 193 -180 291 -180H377V-96H351C310 -96 289 -81 289 -24C289 64 299 103 299 193Z" glyph-name="braceleft.cap" horiz-adv-x="387" /><glyph d="M289 137C289 258 148 269 148 269V257C148 257 289 268 289 389C289 425 285 458 285 506C285 563 305 571 331 571H357V655H277C183 655 109 620 109 516C109 461 113 438 113 389C113 317 50 299 50 299V227C50 227 113 209 113 137C113 88 109 65 109 10C109 -94 183 -129 277 -129H357V-45H331C305 -45 285 -37 285 20C285 68 289 101 289 137Z" glyph-name="braceleft.small" horiz-adv-x="367" /><glyph d="M88 375C88 254 229 243 229 243V255C229 255 88 244 88 123C88 33 98 -6 98 -94C98 -151 77 -166 36 -166H10V-250H96C194 -250 284 -208 284 -104C284 -49 274 42 274 123C274 195 337 213 337 213V285C337 285 274 303 274 375C274 456 284 547 284 602C284 706 194 748 96 748H10V664H36C77 664 98 649 98 592C98 504 88 465 88 375Z" glyph-name="braceright" horiz-adv-x="387" unicode="}" /><glyph d="M88 445C88 324 229 313 229 313V325C229 325 88 314 88 193C88 103 98 64 98 -24C98 -81 77 -96 36 -96H10V-180H96C194 -180 284 -138 284 -34C284 21 274 112 274 193C274 265 337 283 337 283V355C337 355 274 373 274 445C274 526 284 617 284 672C284 776 194 818 96 818H10V734H36C77 734 98 719 98 662C98 574 88 535 88 445Z" glyph-name="braceright.cap" horiz-adv-x="387" /><glyph d="M78 137C78 258 219 269 219 269V257C219 257 78 268 78 389C78 425 82 458 82 506C82 563 62 571 36 571H10V655H90C184 655 258 620 258 516C258 461 254 438 254 389C254 317 317 299 317 299V227C317 227 254 209 254 137C254 88 258 65 258 10C258 -94 184 -129 90 -129H10V-45H36C62 -45 82 -37 82 20C82 68 78 101 78 137Z" glyph-name="braceright.small" horiz-adv-x="367" /><glyph d="M256 660H353V752H80V-200H353V-108H256L262 -114V666Z" glyph-name="bracketleft" horiz-adv-x="363" unicode="[" /><glyph d="M256 740H353V832H80V-120H353V-28H256L262 -34V746Z" glyph-name="bracketleft.cap" horiz-adv-x="363" /><glyph d="M256 568H353V660H80V-142H353V-50H256L262 -56V574Z" glyph-name="bracketleft.small" horiz-adv-x="363" /><glyph d="M107 -108H10V-200H283V752H10V660H107L101 666V-114Z" glyph-name="bracketright" horiz-adv-x="363" unicode="]" /><glyph d="M107 -28H10V-120H283V832H10V740H107L101 746V-34Z" glyph-name="bracketright.cap" horiz-adv-x="363" /><glyph d="M107 -50H10V-142H283V660H10V568H107L101 574V-56Z" glyph-name="bracketright.small" horiz-adv-x="363" /><glyph d="M250 558C370 558 419 644 409 762H356C347 722 330 680 250 680C169 680 153 722 144 762H91C81 644 130 558 250 558Z" glyph-name="breve" horiz-adv-x="500" unicode="&#728;" /><glyph d="M91 919C81 816 130 740 251 740C371 740 420 816 410 919H357C348 884 331 857 251 857C169 857 153 884 144 919Z" glyph-name="breve.cap" horiz-adv-x="500" /><glyph d="M224 417H70V740H224ZM224 -153H70V170H224Z" glyph-name="brokenbar" horiz-adv-x="294" unicode="&#166;" /><glyph d="M201 137C296 137 373 206 373 309C373 411 296 480 201 480C107 480 30 411 30 309C30 206 107 137 201 137Z" glyph-name="bullet" horiz-adv-x="403" unicode="&#8226;" /><glyph d="M25 227C25 34 156 -15 262 -15C388 -15 452 69 452 176H404C391 125 355 104 311 104C241 104 211 156 211 238C211 306 238 364 293 364C331 364 351 344 357 308H434C438 322 440 336 440 351C440 422 397 500 264 500C121 500 25 375 25 227Z" glyph-name="c" horiz-adv-x="472" unicode="c" /><glyph d="M17 539C17 423 100 394 166 394C247 394 288 444 287 508H255C248 480 228 469 202 469C160 469 143 500 143 544C143 582 157 614 187 614C208 614 221 604 224 584H275C278 592 280 601 280 612C280 654 253 700 169 700C76 700 17 628 17 539Z" glyph-name="c.superior" horiz-adv-x="300" /><glyph d="M25 227C25 34 156 -15 262 -15C388 -15 452 69 452 176H404C391 125 355 104 311 104C241 104 211 156 211 238C211 306 238 364 293 364C331 364 351 344 357 308H434C438 322 440 336 440 351C440 422 397 500 264 500C121 500 25 375 25 227ZM161 591 225 540 402 698 296 793Z" glyph-name="cacute" horiz-adv-x="472" unicode="&#263;" /><glyph d="M66 737 202 552H298L434 737L383 784L250 674L117 784Z" glyph-name="caron" horiz-adv-x="500" unicode="&#711;" /><glyph d="M66 878 207 733H294L434 878L393 925L250 851L107 925Z" glyph-name="caron.cap" horiz-adv-x="500" /><glyph d="M185 490H284L334 710H185Z" glyph-name="caronSlovak" horiz-adv-x="500" /><glyph d="M25 227C25 34 156 -15 262 -15C388 -15 452 69 452 176H404C391 125 355 104 311 104C241 104 211 156 211 238C211 306 238 364 293 364C331 364 351 344 357 308H434C438 322 440 336 440 351C440 422 397 500 264 500C121 500 25 375 25 227ZM86 737 222 552H318L454 737L403 784L270 674L137 784Z" glyph-name="ccaron" horiz-adv-x="474" unicode="&#269;" /><glyph d="M25 227C25 34 156 -15 262 -15C388 -15 452 69 452 176H404C391 125 355 104 311 104C241 104 211 156 211 238C211 306 238 364 293 364C331 364 351 344 357 308H434C438 322 440 336 440 351C440 422 397 500 264 500C121 500 25 375 25 227ZM174 -117C166 -169 191 -212 263 -212C315 -212 359 -179 359 -118C359 -50 299 -25 239 -42L263 -40L260 0L220 3L200 -69L220 -85C250 -81 267 -94 267 -117C267 -138 253 -150 236 -150C216 -150 206 -140 206 -117Z" glyph-name="ccedilla" horiz-adv-x="472" unicode="&#231;" /><glyph d="M25 227C25 34 156 -15 262 -15C388 -15 452 69 452 176H404C391 125 355 104 311 104C241 104 211 156 211 238C211 306 238 364 293 364C331 364 351 344 357 308H434C438 322 440 336 440 351C440 422 397 500 264 500C121 500 25 375 25 227ZM85 589 136 542 269 652 402 542 453 589 317 774H221Z" glyph-name="ccircumflex" horiz-adv-x="473" unicode="&#265;" /><glyph d="M25 227C25 34 156 -15 262 -15C388 -15 452 69 452 176H404C391 125 355 104 311 104C241 104 211 156 211 238C211 306 238 364 293 364C331 364 351 344 357 308H434C438 322 440 336 440 351C440 422 397 500 264 500C121 500 25 375 25 227ZM179 594H361V740H179Z" glyph-name="cdotaccent" horiz-adv-x="472" unicode="&#267;" /><glyph d="M171 -117C163 -169 188 -212 260 -212C312 -212 356 -179 356 -118C356 -50 296 -25 236 -42L260 -40L257 0L217 3L197 -69L217 -85C247 -81 264 -94 264 -117C264 -138 250 -150 233 -150C213 -150 203 -140 203 -117Z" glyph-name="cedilla" horiz-adv-x="500" unicode="&#184;" /><glyph d="M88 331C88 138 219 89 325 89C451 89 515 173 515 280H467C454 229 418 208 374 208C304 208 274 260 274 342C274 410 301 468 356 468C394 468 414 448 420 412H497C501 426 503 440 503 455C503 526 456 604 323 604C182 604 88 479 88 331ZM381 586V690H270V586ZM381 0V120H270V0Z" glyph-name="cent" horiz-adv-x="620" unicode="&#162;" /><glyph d="M392 320 50 640V389L387 75L720 386V636L382 320Z" glyph-name="chevrondown" horiz-adv-x="770" /><glyph d="M255 338 545 690H304L20 343L301 0H541L255 348Z" glyph-name="chevronleft" horiz-adv-x="585" /><glyph d="M330 338 40 690H281L565 343L284 0H44L330 348Z" glyph-name="chevronright" horiz-adv-x="585" /><glyph d="M378 392 720 72V323L383 637L50 326V76L388 392Z" glyph-name="chevronup" horiz-adv-x="770" /><glyph d="M66 589 117 542 250 652 383 542 434 589 298 774H202Z" glyph-name="circumflex" horiz-adv-x="500" unicode="&#710;" /><glyph d="M66 775 107 728 250 802 393 728 434 775 293 920H206Z" glyph-name="circumflex.cap" horiz-adv-x="500" /><glyph d="M60 83C60 32 97 -15 158 -15C215 -15 251 32 251 83C251 129 215 176 158 176C97 176 60 129 60 83ZM60 408C60 357 97 310 158 310C215 310 251 357 251 408C251 454 215 501 158 501C97 501 60 454 60 408Z" glyph-name="colon" horiz-adv-x="311" unicode=":" /><glyph d="M30 -138 63 -188C129 -161 226 -63 226 71C226 129 192 173 127 173C74 173 34 133 34 80C34 22 65 -9 124 -9C119 -57 74 -112 30 -138Z" glyph-name="comma" horiz-adv-x="276" unicode="," /><glyph d="M114 -235 201 -251 287 -56H143Z" glyph-name="commaaccent" horiz-adv-x="500" /><glyph d="M134 563H274L301 738L214 754Z" glyph-name="commaaccent.alt" horiz-adv-x="500" /><glyph d="M384 -15C579 -15 734 121 734 343C734 567 579 700 384 700C190 700 35 567 35 343C35 121 172 -15 384 -15ZM387 60C211 60 125 182 125 343C125 510 225 625 387 625C546 625 649 506 649 343C649 174 546 60 387 60ZM476 391H537C540 402 542 412 542 423C542 477 505 535 399 535C287 535 213 457 213 330C213 176 317 149 401 149C501 149 551 212 551 292H513C503 254 474 242 443 242C392 242 370 279 370 338C370 386 390 427 429 427C457 427 471 418 476 391Z" glyph-name="copyright" horiz-adv-x="769" unicode="&#169;" /><glyph d="M297 72C177 72 89 166 89 281C89 396 177 489 297 489C420 489 506 396 506 281C506 166 420 72 297 72ZM298 207C341 207 367 240 367 281C367 321 341 353 298 353C256 353 230 321 230 281C230 240 256 207 298 207ZM229 431 149 351 50 453 131 533ZM50 125 149 227 229 147 131 45ZM371 431 469 533 550 453 451 351ZM550 125 469 45 371 147 451 227Z" glyph-name="currency" horiz-adv-x="600" unicode="&#164;" /><glyph d="M25 239C25 70 109 -15 214 -15C353 -15 367 82 367 235C367 388 335 500 214 500C104 500 25 390 25 239ZM341 243C341 146 316 110 277 110C231 110 211 153 211 244C211 303 231 357 276 357C327 357 341 297 341 243ZM358 162 381 0H523V710L341 700V206Z" glyph-name="d" horiz-adv-x="573" unicode="d" /><glyph d="M17 545C17 445 68 394 134 394C221 394 227 452 227 542C227 631 212 700 134 700C66 700 17 634 17 545ZM211 547C211 493 198 474 177 474C151 474 143 498 143 548C143 578 152 608 177 608C207 608 211 573 211 547ZM222 501 238 403H334V824L211 817V527Z" glyph-name="d.superior" horiz-adv-x="365" /><glyph d="M202 -94C156 26 123 150 101 278L199 477L109 690H360L270 477L355 278C333 150 300 26 254 -94ZM439 579V365L234 465L30 365V579L234 489Z" glyph-name="dagger" horiz-adv-x="469" unicode="&#8224;" /><glyph d="M109 -94 199 119 108 298 199 477 109 690H360L270 477L361 298L270 119L360 -94ZM439 579V365L234 465L30 365V579L234 489ZM439 231V17L234 107L30 17V231L234 131Z" glyph-name="daggerdbl" horiz-adv-x="469" unicode="&#8225;" /><glyph d="M25 239C25 70 109 -15 214 -15C353 -15 367 82 367 235C367 388 335 500 214 500C104 500 25 390 25 239ZM341 243C341 146 316 110 277 110C231 110 211 153 211 244C211 303 231 357 276 357C327 357 341 297 341 243ZM358 162 381 0H523V710L341 700V206ZM585 490H684L734 710H585Z" glyph-name="dcaron" horiz-adv-x="734" unicode="&#271;" /><glyph d="M204 641V559H590V641ZM25 239C25 70 109 -15 214 -15C353 -15 367 82 367 235C367 388 335 500 214 500C104 500 25 390 25 239ZM341 243C341 146 316 110 277 110C231 110 211 153 211 244C211 303 231 357 276 357C327 357 341 297 341 243ZM358 162 381 0H523V710L341 700V206Z" glyph-name="dcroat" horiz-adv-x="590" unicode="&#273;" /><glyph d="M200 380C86 380 30 444 30 535C30 625 86 690 200 690C314 690 370 625 370 535C370 444 314 380 200 380ZM200 477C226 477 247 495 247 535C247 575 226 593 200 593C175 593 154 574 154 535C154 495 175 477 200 477Z" glyph-name="degree" horiz-adv-x="400" unicode="&#176;" /><glyph d="M89 594H221V740H89ZM279 594H411V740H279Z" glyph-name="dieresis" horiz-adv-x="500" unicode="&#168;" /><glyph d="M89 744H221V890H89ZM279 744H411V890H279Z" glyph-name="dieresis.cap" horiz-adv-x="500" /><glyph d="M540 386H80V242H540ZM224.6616 86.3376C224.6616 36.2534 257.753 -0.4154 312.309 -0.4154C363.2876 -0.4154 395.4845 35.359 395.4845 85.4432C395.4845 129.2669 362.3932 170.4075 311.4146 170.4075C256.8586 170.4075 224.6616 130.1613 224.6616 86.3376ZM224.6616 544.3376C224.6616 494.2534 257.753 457.5846 312.309 457.5846C363.2876 457.5846 395.4845 493.359 395.4845 543.4432C395.4845 587.2669 362.3932 628.4075 311.4146 628.4075C256.8586 628.4075 224.6616 588.1613 224.6616 544.3376Z" glyph-name="divide" horiz-adv-x="620" unicode="&#247;" /><glyph d="M472 455H553C553 590 476 685 308 685C153 685 58 594 58 472C58 343 135 295 212 266C284 239 358 228 358 173C358 136 334 111 277 111C199 111 136 143 122 218H47C47 74 132 -15 309 -15C465 -15 571 67 571 195C571 330 471 376 385 405C321 427 263 445 263 490C263 529 291 554 352 554C408 554 465 523 472 455ZM352 596V760H241V596ZM352 -94V70H241V-94Z" glyph-name="dollar" horiz-adv-x="620" unicode="$" /><glyph d="M159 594H341V740H159Z" glyph-name="dotaccent" horiz-adv-x="500" unicode="&#729;" /><glyph d="M159 744H341V890H159Z" glyph-name="dotaccent.cap" horiz-adv-x="500" /><glyph d="M50 480V0H232V490Z" glyph-name="dotlessi" horiz-adv-x="282" unicode="&#305;" /><glyph d="M-40 -91C-40 -143 -36 -249 79 -249C202 -249 244 -163 244 3V198V490L62 480V112C62 3 75 -23 75 -81C75 -119 60 -129 38 -129C10 -129 1 -111 -2 -91Z" glyph-name="dotlessj" horiz-adv-x="294" unicode="&#567;" /><glyph d="M25 223C25 72 104 -15 267 -15C393 -15 464 69 464 176H416C410 132 374 102 314 102C218 102 203 168 203 238V263C203 339 234 373 268 373C306 373 312 345 312 317C312 306 310 288 309 283L119 273L117 218H447C451 239 455 290 455 319C455 423 388 500 257 500C119 500 25 371 25 223Z" glyph-name="e" horiz-adv-x="489" unicode="e" /><glyph d="M17 537C17 448 69 394 170 394C251 394 295 447 295 508H263C259 485 237 467 202 467C148 467 137 506 137 545C137 546 137 557 137 557C137 599 154 619 172 619C190 619 193 605 193 589C193 583 192 572 191 569L80 563L79 528H285C288 540 290 570 290 588C290 652 247 700 165 700C76 700 17 623 17 537Z" glyph-name="e.superior" horiz-adv-x="311" /><glyph d="M25 223C25 72 104 -15 267 -15C393 -15 464 69 464 176H416C410 132 374 102 314 102C218 102 203 168 203 238V263C203 339 234 373 268 373C306 373 312 345 312 317C312 306 310 288 309 283L119 273L117 218H447C451 239 455 290 455 319C455 423 388 500 257 500C119 500 25 371 25 223ZM180 591 244 540 421 698 315 793Z" glyph-name="eacute" horiz-adv-x="489" unicode="&#233;" /><glyph d="M25 223C25 72 104 -15 267 -15C393 -15 464 69 464 176H416C410 132 374 102 314 102C218 102 203 168 203 238V263C203 339 234 373 268 373C306 373 312 345 312 317C312 306 310 288 309 283L119 273L117 218H447C451 239 455 290 455 319C455 423 388 500 257 500C119 500 25 371 25 223ZM270 558C390 558 439 644 429 762H376C367 722 350 680 270 680C189 680 173 722 164 762H111C101 644 150 558 270 558Z" glyph-name="ebreve" horiz-adv-x="489" unicode="&#277;" /><glyph d="M25 223C25 72 104 -15 267 -15C393 -15 464 69 464 176H416C410 132 374 102 314 102C218 102 203 168 203 238V263C203 339 234 373 268 373C306 373 312 345 312 317C312 306 310 288 309 283L119 273L117 218H447C451 239 455 290 455 319C455 423 388 500 257 500C119 500 25 371 25 223ZM76 737 212 552H308L444 737L393 784L260 674L127 784Z" glyph-name="ecaron" horiz-adv-x="489" unicode="&#283;" /><glyph d="M25 223C25 72 104 -15 267 -15C393 -15 464 69 464 176H416C410 132 374 102 314 102C218 102 203 168 203 238V263C203 339 234 373 268 373C306 373 312 345 312 317C312 306 310 288 309 283L119 273L117 218H447C451 239 455 290 455 319C455 423 388 500 257 500C119 500 25 371 25 223ZM86 589 137 542 270 652 403 542 454 589 318 774H222Z" glyph-name="ecircumflex" horiz-adv-x="489" unicode="&#234;" /><glyph d="M25 223C25 72 104 -15 267 -15C393 -15 464 69 464 176H416C410 132 374 102 314 102C218 102 203 168 203 238V263C203 339 234 373 268 373C306 373 312 345 312 317C312 306 310 288 309 283L119 273L117 218H447C451 239 455 290 455 319C455 423 388 500 257 500C119 500 25 371 25 223ZM109 594H241V740H109ZM299 594H431V740H299Z" glyph-name="edieresis" horiz-adv-x="489" unicode="&#235;" /><glyph d="M25 223C25 72 104 -15 267 -15C393 -15 464 69 464 176H416C410 132 374 102 314 102C218 102 203 168 203 238V263C203 339 234 373 268 373C306 373 312 345 312 317C312 306 310 288 309 283L119 273L117 218H447C451 239 455 290 455 319C455 423 388 500 257 500C119 500 25 371 25 223ZM179 594H361V740H179Z" glyph-name="edotaccent" horiz-adv-x="489" unicode="&#279;" /><glyph d="M25 223C25 72 104 -15 267 -15C393 -15 464 69 464 176H416C410 132 374 102 314 102C218 102 203 168 203 238V263C203 339 234 373 268 373C306 373 312 345 312 317C312 306 310 288 309 283L119 273L117 218H447C451 239 455 290 455 319C455 423 388 500 257 500C119 500 25 371 25 223ZM121 698 298 540 362 591 227 793Z" glyph-name="egrave" horiz-adv-x="489" unicode="&#232;" /><glyph d="M304 -15C492 -15 573 64 573 182C573 304 477 366 338 366V341C483 341 553 401 553 505C553 608 479 685 303 685C127 685 55 608 55 505C55 401 125 341 270 341V366C131 366 35 304 35 182C35 63 116 -15 304 -15ZM304 129C256 129 229 159 229 211C229 265 256 297 304 297C357 297 379 265 379 211C379 160 348 129 304 129ZM304 401C253 401 239 435 239 474C239 509 257 541 304 541C351 541 369 509 369 474C369 435 355 401 304 401Z" glyph-name="eight" horiz-adv-x="608" unicode="8" /><glyph d="M305 288V266C433 266 492 313 492 395C492 476 429 540 272 540C115 540 54 476 54 395C54 313 114 266 242 266V288C118 288 37 237 37 141C37 49 105 -15 273 -15C442 -15 509 49 509 141C509 237 428 288 305 288ZM273 320C235 320 232 345 232 367C232 388 241 410 273 410C305 410 314 388 314 367C314 345 311 320 273 320ZM273 113C240 113 225 135 225 167C225 202 239 225 273 225C313 225 321 202 321 167C321 136 303 113 273 113Z" glyph-name="eight.small" horiz-adv-x="545" /><glyph d="M305 288V266C433 266 492 313 492 395C492 476 429 540 272 540C115 540 54 476 54 395C54 313 114 266 242 266V288C118 288 37 237 37 141C37 49 105 -15 273 -15C442 -15 509 49 509 141C509 237 428 288 305 288ZM273 320C235 320 232 345 232 367C232 388 241 410 273 410C305 410 314 388 314 367C314 345 311 320 273 320ZM273 113C240 113 225 135 225 167C225 202 239 225 273 225C313 225 321 202 321 167C321 136 303 113 273 113Z" glyph-name="eight.small_tab" horiz-adv-x="545" /><glyph d="M310 -15C498 -15 579 64 579 182C579 304 483 366 344 366V341C489 341 559 401 559 505C559 608 485 685 309 685C133 685 61 608 61 505C61 401 131 341 276 341V366C137 366 41 304 41 182C41 63 122 -15 310 -15ZM310 129C262 129 235 159 235 211C235 265 262 297 310 297C363 297 385 265 385 211C385 160 354 129 310 129ZM310 401C259 401 245 435 245 474C245 509 263 541 310 541C357 541 375 509 375 474C375 435 361 401 310 401Z" glyph-name="eight.tab" horiz-adv-x="620" /><glyph d="M190 -107C311 -107 360 -58 360 12C360 85 301 123 212 123V107C304 107 348 143 348 205C348 267 302 315 189 315C76 315 32 267 32 205C32 143 75 107 167 107V123C79 123 20 85 20 12C20 -59 69 -107 190 -107ZM190 -12C164 -12 152 5 152 32C152 60 164 78 190 78C219 78 228 59 228 32C228 5 214 -12 190 -12ZM190 146C161 146 157 166 157 185C157 202 165 220 190 220C215 220 223 202 223 185C223 166 218 146 190 146Z" glyph-name="eightinferior" horiz-adv-x="381" unicode="&#8328;" /><glyph d="M190 396C311 396 360 445 360 515C360 588 301 626 212 626V610C304 610 348 646 348 708C348 770 302 818 189 818C76 818 32 770 32 708C32 646 75 610 167 610V626C79 626 20 588 20 515C20 444 69 396 190 396ZM190 491C164 491 152 508 152 535C152 563 164 581 190 581C219 581 228 562 228 535C228 508 214 491 190 491ZM190 649C161 649 157 669 157 688C157 705 165 723 190 723C215 723 223 705 223 688C223 669 218 649 190 649Z" glyph-name="eightsuperior" horiz-adv-x="381" unicode="&#8312;" /><glyph d="M60 82C60 26 97 -15 158 -15C215 -15 251 25 251 81C251 130 214 176 157 176C96 176 60 131 60 82ZM330 82C330 26 367 -15 428 -15C485 -15 521 25 521 81C521 130 484 176 427 176C366 176 330 131 330 82ZM600 82C600 26 637 -15 698 -15C755 -15 791 25 791 81C791 130 754 176 697 176C636 176 600 131 600 82Z" glyph-name="ellipsis" horiz-adv-x="851" unicode="&#8230;" /><glyph d="M25 223C25 72 104 -15 267 -15C393 -15 464 69 464 176H416C410 132 374 102 314 102C218 102 203 168 203 238V263C203 339 234 373 268 373C306 373 312 345 312 317C312 306 310 288 309 283L119 273L117 218H447C451 239 455 290 455 319C455 423 388 500 257 500C119 500 25 371 25 223ZM112 735V623H428V735Z" glyph-name="emacron" horiz-adv-x="489" unicode="&#275;" /><glyph d="M30 348V206H970V348Z" glyph-name="emdash" horiz-adv-x="1000" unicode="&#8212;" /><glyph d="M30 428V286H970V428Z" glyph-name="emdash.cap" horiz-adv-x="1000" /><glyph d="M30 378V236H600V378Z" glyph-name="endash" horiz-adv-x="630" unicode="&#8211;" /><glyph d="M30 468V326H600V468Z" glyph-name="endash.cap" horiz-adv-x="630" /><glyph d="M361 -219C484 -219 526 -133 526 33V310C526 425 493 500 376 500C263 500 232 421 224 327L205 490L50 480V0H232V136C232 290 250 349 295 349C326 349 344 329 344 222V142C344 33 357 7 357 -51C357 -89 342 -99 320 -99C292 -99 283 -87 280 -69H242C242 -121 246 -219 361 -219Z" glyph-name="eng" horiz-adv-x="571" unicode="&#331;" /><glyph d="M25 223C25 72 104 -15 267 -15C393 -15 464 69 464 176H416C410 132 374 102 314 102C218 102 203 168 203 238V263C203 339 234 373 268 373C306 373 312 345 312 317C312 306 310 288 309 283L119 273L117 218H447C451 239 455 290 455 319C455 423 388 500 257 500C119 500 25 371 25 223ZM259 -137C259 -188 290 -229 358 -229C437 -229 461 -176 456 -115H421C421 -131 415 -151 398 -151C376 -151 371 -136 371 -119C371 -60 395 15 440 79L427 80C353 12 259 -49 259 -137Z" glyph-name="eogonek" horiz-adv-x="489" unicode="&#281;" /><glyph d="M540 266H80V122H540ZM540 506H80V362H540Z" glyph-name="equal" horiz-adv-x="620" unicode="=" /><glyph d="M709 281V301C709 469 578 607 380 607C180 607 50 469 50 301C50 135 172 -5 380 -5C533 -5 621 52 673 125L648 146C587 64 509 26 380 26C288 26 226 52 181 94V281ZM380 576C465 576 532 550 579 506V309H181V506C228 551 293 576 380 576Z" glyph-name="estimated" horiz-adv-x="759" unicode="&#8494;" /><glyph d="M273 109C223 109 207 161 207 225C207 287 226 343 273 343C318 343 337 289 337 225C337 145 311 109 273 109ZM270 -15C422 -15 518 78 518 258C518 499 391 635 193 710L97 658C222 605 316 502 338 397H335C301 466 256 480 204 480C106 480 25 391 25 233C25 70 126 -15 270 -15ZM317 710 109 516H186L393 710Z" glyph-name="eth" horiz-adv-x="543" unicode="&#240;" /><glyph d="M231 207 261 690H50L80 207ZM60 74C60 18 97 -15 158 -15C215 -15 251 18 251 74C251 126 215 159 158 159C97 159 60 126 60 74Z" glyph-name="exclam" horiz-adv-x="311" unicode="!" /><glyph d="M226 207 246 530H65L85 207ZM66 74C66 18 103 -15 158 -15C210 -15 245 18 245 74C245 126 210 159 158 159C103 159 66 126 66 74Z" glyph-name="exclam.small" horiz-adv-x="311" /><glyph d="M80 268 50 -215H261L231 268ZM251 401C251 457 214 490 153 490C96 490 60 457 60 401C60 349 96 316 153 316C214 316 251 349 251 401Z" glyph-name="exclamdown" horiz-adv-x="311" unicode="&#161;" /><glyph d="M80 483 50 0H261L231 483ZM251 616C251 672 214 705 153 705C96 705 60 672 60 616C60 564 96 531 153 531C214 531 251 564 251 616Z" glyph-name="exclamdown.cap" horiz-adv-x="311" /><glyph d="M85 323 65 0H246L226 323ZM245 456C245 512 208 545 153 545C101 545 66 512 66 456C66 404 101 371 153 371C208 371 245 404 245 456Z" glyph-name="exclamdown.small" horiz-adv-x="500" /><glyph d="M58 0H240V349C240 482 220 487 220 530C220 568 239 590 278 590C317 590 331 568 334 548H372C377 565 379 581 379 597C379 662 336 710 243 710C137 710 87 641 68 553C61 520 58 486 58 451ZM0 460V398H341V480H67Z" glyph-name="f" horiz-adv-x="329" unicode="f" /><glyph d="M35 403H158V607C158 687 146 689 146 713C146 735 158 748 180 748C204 748 212 734 214 723H239C242 733 244 743 244 752C245 793 217 824 156 824C91 824 55 783 43 730C39 713 35 688 35 669ZM1 673V634H219V686H42Z" glyph-name="f.superior" horiz-adv-x="214" /><glyph d="M58 0H240V349C240 482 220 487 220 530C220 568 235 590 268 590C301 590 311 568 314 548H352C357 565 359 581 359 597C359 658 330 711 237 711C124.9226 711 79.9415 631.8608 64.7087 540.8956C59.8263 511.7398 58 481.3691 58 452ZM0 460V398H441V480H66ZM375 480V0H557V490ZM400 594H562V740H400Z" glyph-name="fi" horiz-adv-x="612" unicode="&#64257;" /><glyph d="M60 690V0H251V690ZM442 268V403H136V268ZM492 555V690H136V555ZM562 690V0H753V690Z" glyph-name="fi.cap" horiz-adv-x="813" /><glyph d="M142 531H505V675H79L57 309L148 271C166 296 197 321 250 321C304 321 351 297 351 232C351 171 310 138 248 138C191 138 148 164 135 220H41C28 37 167 -15 296 -15C454 -15 545 79 545 238C545 373 469 446 342 446C206 446 170 335 170 335L211 329L242 658Z" glyph-name="five" horiz-adv-x="580" unicode="5" /><glyph d="M450 403V530H76L55 237L142 203C160 225 183 239 220 239C258 239 295 226 295 181C295 141 264 122 219 122C179 122 145 137 131 176H41C30 24 156 -15 266 -15C404 -15 483 59 483 186C483 294 418 350 310 350C193 350 165 259 165 259L204 254L234 516L137 403Z" glyph-name="five.small" horiz-adv-x="523" /><glyph d="M450 403V530H76L55 237L142 203C160 225 183 239 220 239C258 239 295 226 295 181C295 141 264 122 219 122C179 122 145 137 131 176H41C30 24 156 -15 266 -15C404 -15 483 59 483 186C483 294 418 350 310 350C193 350 165 259 165 259L204 254L234 516L137 403Z" glyph-name="five.small_tab" horiz-adv-x="545" /><glyph d="M157 531H520V675H94L72 309L163 271C181 296 212 321 265 321C319 321 366 297 366 232C366 171 325 138 263 138C206 138 163 164 150 220H56C43 37 182 -15 311 -15C469 -15 560 79 560 238C560 373 484 446 357 446C221 446 185 335 185 335L226 329L257 658Z" glyph-name="five.tab" horiz-adv-x="620" /><glyph d="M90 210H316V305H47L32 82L94 57C106 74 124 85 153 85C181 85 209 75 209 39C209 6 186 -10 151 -10C121 -10 95 3 86 34H22C14 -81 104 -111 184 -111C284 -111 341 -54 341 43C341 124 294 168 215 168C130 168 109 99 109 99L137 95L158 294Z" glyph-name="fiveinferior" horiz-adv-x="363" unicode="&#8325;" /><glyph d="M90 713H316V808H47L32 585L94 560C106 577 124 588 153 588C181 588 209 578 209 542C209 509 186 493 151 493C121 493 95 506 86 537H22C14 422 104 392 184 392C284 392 341 449 341 546C341 627 294 671 215 671C130 671 109 602 109 602L137 598L158 797Z" glyph-name="fivesuperior" horiz-adv-x="363" unicode="&#8309;" /><glyph d="M58 0H240V349C240 482 220 487 220 530C220 568 235 590 268 590C301 590 311 568 314 548H352C357 565 359 581 359 597C359 658 330 711 237 711C120.5245 711 76.5146 625.5279 63.0506 530.1363C59.4065 504.3182 58 477.7734 58 452ZM0 460V398H331V480H66ZM390 700V0H572V710Z" glyph-name="fl" horiz-adv-x="622" unicode="&#64258;" /><glyph d="M60 690V0H251V690ZM442 268V403H136V268ZM492 555V690H136V555ZM562 690V0H753V690ZM638 140V0H1014V140Z" glyph-name="fl.cap" horiz-adv-x="1024" /><glyph d="M512 408H137V308H512ZM246 481 190 145C171 33 154 0 108 0C76 0 62 19 54 37L4 10C4 -46 43 -120 144 -120C282 -120 338 -20 355 84L411 420C427 532 447 565 493 565C525 565 539 546 547 528L597 555C597 611 558 685 457 685C319 685 263 585 246 481Z" glyph-name="florin" horiz-adv-x="620" unicode="&#402;" /><glyph d="M319 570V0H506V675H323L20 272V151H600V291H76L82 184L373 570Z" glyph-name="four" horiz-adv-x="620" unicode="4" /><glyph d="M267 0H448V530H271L15 218V110H522V235H69L74 139L318 436H267Z" glyph-name="four.small" horiz-adv-x="541" /><glyph d="M267 0H448V530H271L15 218V110H522V235H69L74 139L318 436H267Z" glyph-name="four.small_tab" horiz-adv-x="545" /><glyph d="M319 570V0H506V675H323L20 272V151H600V291H76L82 184L373 570Z" glyph-name="four.tab" horiz-adv-x="620" /><glyph d="M194 236V-100H321V305H197L10 66V-14H376V78H48L52 8L230 236Z" glyph-name="fourinferior" horiz-adv-x="388" unicode="&#8324;" /><glyph d="M194 739V403H321V808H197L10 569V489H376V581H48L52 511L230 739Z" glyph-name="foursuperior" horiz-adv-x="388" unicode="&#8308;" /><glyph d="M346 675H485L140 0H0Z" glyph-name="fraction" horiz-adv-x="485" unicode="&#8260;" /><glyph d="M510 -63C510 -185 407 -250 231 -250C85 -250 26 -196 26 -123C26 -93 40 -73 50 -61H91C89 -67 86 -77 86 -88C86 -127 133 -150 225 -150C312 -150 337 -131 337 -104C337 -81 318 -72 281 -72H179C119 -72 25 -52 25 56C25 161 173 200 173 200L190 166C190 166 147 158 147 126C147 100 173 86 232 86C238 86 303 88 309 88C436 88 510 46 510 -63ZM403 319V411C403 485 448 500 473 500C527 500 542 466 542 435C542 418 538 402 533 392H511C511 408 502 418 488 418C469 418 454 406 454 366V328ZM26 324C26 423 105 500 246 500C363 500 454 423 454 328C454 221 387 142 246 142C116 142 26 203 26 324ZM289 312C289 338 280 378 242 378C206 378 192 339 192 310C192 264 210 241 241 241C270 241 289 263 289 312Z" glyph-name="g" horiz-adv-x="522" unicode="g" /><glyph d="M323 368C323 293 258 255 146 255C59 255 16 282 16 324C16 342 24 354 31 361H58C57 358 56 354 56 349C56 329 82 316 141 316C192 316 207 327 207 341C207 352 197 356 179 356H111C69 356 15 373 15 433C15 496 104 519 104 519L122 502C122 502 97 497 97 480C97 465 113 458 147 458C151 458 194 459 198 459C277 459 323 434 323 368ZM255 593V648C255 692 284 700 300 700C335 700 344 678 344 659C344 649 342 639 339 633H324C324 643 319 649 309 649C298 649 289 642 289 618V598ZM16 595C16 654 66 700 157 700C232 700 289 653 289 598C289 534 247 486 157 486C73 486 16 523 16 595ZM177 587C177 603 173 622 153 622C134 622 128 601 128 586C128 561 137 550 153 550C168 550 177 561 177 587Z" glyph-name="g.superior" horiz-adv-x="333" /><glyph d="M510 -63C510 -185 407 -250 231 -250C85 -250 26 -196 26 -123C26 -93 40 -73 50 -61H91C89 -67 86 -77 86 -88C86 -127 133 -150 225 -150C312 -150 337 -131 337 -104C337 -81 318 -72 281 -72H179C119 -72 25 -52 25 56C25 161 173 200 173 200L190 166C190 166 147 158 147 126C147 100 173 86 232 86C238 86 303 88 309 88C436 88 510 46 510 -63ZM403 319V411C403 485 448 500 473 500C527 500 542 466 542 435C542 418 538 402 533 392H511C511 408 502 418 488 418C469 418 454 406 454 366V328ZM26 324C26 423 105 500 246 500C363 500 454 423 454 328C454 221 387 142 246 142C116 142 26 203 26 324ZM289 312C289 338 280 378 242 378C206 378 192 339 192 310C192 264 210 241 241 241C270 241 289 263 289 312ZM250 558C370 558 419 644 409 762H356C347 722 330 680 250 680C169 680 153 722 144 762H91C81 644 130 558 250 558Z" glyph-name="gbreve" horiz-adv-x="522" unicode="&#287;" /><glyph d="M510 -63C510 -185 407 -250 231 -250C85 -250 26 -196 26 -123C26 -93 40 -73 50 -61H91C89 -67 86 -77 86 -88C86 -127 133 -150 225 -150C312 -150 337 -131 337 -104C337 -81 318 -72 281 -72H179C119 -72 25 -52 25 56C25 161 173 200 173 200L190 166C190 166 147 158 147 126C147 100 173 86 232 86C238 86 303 88 309 88C436 88 510 46 510 -63ZM403 319V411C403 485 448 500 473 500C527 500 542 466 542 435C542 418 538 402 533 392H511C511 408 502 418 488 418C469 418 454 406 454 366V328ZM26 324C26 423 105 500 246 500C363 500 454 423 454 328C454 221 387 142 246 142C116 142 26 203 26 324ZM289 312C289 338 280 378 242 378C206 378 192 339 192 310C192 264 210 241 241 241C270 241 289 263 289 312ZM66 589 117 542 250 652 383 542 434 589 298 774H202Z" glyph-name="gcircumflex" horiz-adv-x="522" unicode="&#285;" /><glyph d="M510 -63C510 -185 407 -250 231 -250C85 -250 26 -196 26 -123C26 -93 40 -73 50 -61H91C89 -67 86 -77 86 -88C86 -127 133 -150 225 -150C312 -150 337 -131 337 -104C337 -81 318 -72 281 -72H179C119 -72 25 -52 25 56C25 161 173 200 173 200L190 166C190 166 147 158 147 126C147 100 173 86 232 86C238 86 303 88 309 88C436 88 510 46 510 -63ZM403 319V411C403 485 448 500 473 500C527 500 542 466 542 435C542 418 538 402 533 392H511C511 408 502 418 488 418C469 418 454 406 454 366V328ZM26 324C26 423 105 500 246 500C363 500 454 423 454 328C454 221 387 142 246 142C116 142 26 203 26 324ZM289 312C289 338 280 378 242 378C206 378 192 339 192 310C192 264 210 241 241 241C270 241 289 263 289 312ZM201 563H341L368 738L281 754Z" glyph-name="gcommaaccent" horiz-adv-x="522" unicode="&#291;" /><glyph d="M510 -63C510 -185 407 -250 231 -250C85 -250 26 -196 26 -123C26 -93 40 -73 50 -61H91C89 -67 86 -77 86 -88C86 -127 133 -150 225 -150C312 -150 337 -131 337 -104C337 -81 318 -72 281 -72H179C119 -72 25 -52 25 56C25 161 173 200 173 200L190 166C190 166 147 158 147 126C147 100 173 86 232 86C238 86 303 88 309 88C436 88 510 46 510 -63ZM403 319V411C403 485 448 500 473 500C527 500 542 466 542 435C542 418 538 402 533 392H511C511 408 502 418 488 418C469 418 454 406 454 366V328ZM26 324C26 423 105 500 246 500C363 500 454 423 454 328C454 221 387 142 246 142C116 142 26 203 26 324ZM289 312C289 338 280 378 242 378C206 378 192 339 192 310C192 264 210 241 241 241C270 241 289 263 289 312ZM159 594H341V740H159Z" glyph-name="gdotaccent" horiz-adv-x="522" unicode="&#289;" /><glyph d="M50 451V0H232V414C232 538 263 589 332 589C378 589 402 563 402 521C402 478 376 456 355 434C323 400 289 368 289 309C289 267 302 235 354 189C395 153 426 144 426 104C426 77 408 57 377 57C341 57 328 84 324 112H272C272 32 324 -15 421 -15C532 -15 614 48 614 156C614 234 575 277 534 308C490 342 447 357 447 392C447 417 467 432 491 453C517 475 533 502 533 549C533 639 457 710 323 710C116 710 50 579 50 451Z" glyph-name="germandbls" horiz-adv-x="639" unicode="&#223;" /><glyph d="M37 223C37 76 121 -15 295 -15C449 -15 554 68 554 199C554 337 455 384 370 414C307 437 250 453 250 499C250 537 279 562 334 562C392 562 434 529 443 463H537C556 613 469 700 303 700C150 700 47 607 47 482C47 351 124 302 200 272C271 244 344 233 344 177C344 139 320 113 264 113C187 113 139 141 122 223ZM614 223C614 76 698 -15 872 -15C1026 -15 1131 68 1131 199C1131 337 1032 384 947 414C884 437 827 453 827 499C827 537 856 562 911 562C969 562 1011 529 1020 463H1114C1133 613 1046 700 880 700C727 700 624 607 624 482C624 351 701 302 777 272C848 244 921 233 921 177C921 139 897 113 841 113C764 113 716 141 699 223Z" glyph-name="germandbls.cap" horiz-adv-x="1154" /><glyph d="M217 91C156 91 117 116 104 170H30C30 56 99 -15 253 -15C390 -15 483 55 483 161C483 277 393 301 328 323C283 340 236 342 236 379C236 401 251 424 297 424C339 424 368 395 378 353H469C480 469 409 540 260 540C119 540 38 456 38 362C38 252 106 223 162 200C215 179 277 173 277 129C277 109 259 91 217 91ZM717 91C656 91 617 116 604 170H530C530 56 599 -15 753 -15C890 -15 983 55 983 161C983 277 893 301 828 323C783 340 736 342 736 379C736 401 751 424 797 424C839 424 868 395 878 353H969C980 469 909 540 760 540C619 540 538 456 538 362C538 252 606 223 662 200C715 179 777 173 777 129C777 109 759 91 717 91Z" glyph-name="germandbls.small" horiz-adv-x="1001" /><glyph d="M121 698 298 540 362 591 227 793Z" glyph-name="grave" horiz-adv-x="500" unicode="`" /><glyph d="M113 803 331 730 377 772 216 925Z" glyph-name="grave.cap" horiz-adv-x="500" /><glyph d="M364 303 90 417 146 539 530 365V253L146 79L90 201L364 315Z" glyph-name="greater" horiz-adv-x="600" unicode="&gt;" /><glyph d="M384 376 95 480 141 609 540 438V326L141 165L95 294L384 388ZM80 134H540V0H80Z" glyph-name="greaterequal" horiz-adv-x="620" unicode="&#8805;" /><glyph d="M180 246 301 434H137L30 262V236L137 64H301L180 252ZM438 246 559 434H395L288 262V236L395 64H559L438 252Z" glyph-name="guillemotleft" horiz-adv-x="589" unicode="&#171;" /><glyph d="M180 346 301 534H137L30 362V336L137 164H301L180 352ZM438 346 559 534H395L288 362V336L395 164H559L438 352Z" glyph-name="guillemotleft.cap" horiz-adv-x="589" /><glyph d="M409 252 288 64H452L559 236V262L452 434H288L409 246ZM151 252 30 64H194L301 236V262L194 434H30L151 246Z" glyph-name="guillemotright" horiz-adv-x="589" unicode="&#187;" /><glyph d="M409 352 288 164H452L559 336V362L452 534H288L409 346ZM151 352 30 164H194L301 336V362L194 534H30L151 346Z" glyph-name="guillemotright.cap" horiz-adv-x="589" /><glyph d="M180 246 301 434H137L30 262V236L137 64H301L180 252Z" glyph-name="guilsinglleft" horiz-adv-x="331" unicode="&#8249;" /><glyph d="M180 346 301 534H137L30 362V336L137 164H301L180 352Z" glyph-name="guilsinglleft.cap" horiz-adv-x="244" /><glyph d="M151 252 30 64H194L301 236V262L194 434H30L151 246Z" glyph-name="guilsinglright" horiz-adv-x="331" unicode="&#8250;" /><glyph d="M151 352 30 164H194L301 336V362L194 534H30L151 346Z" glyph-name="guilsinglright.cap" horiz-adv-x="244" /><glyph d="M526 0V310C526 425 493 500 376 500C223 500 225 330 225 209L232 136C232 290 250 349 295 349C326 349 344 329 344 222V0ZM50 700V0H232V274V318V710Z" glyph-name="h" horiz-adv-x="571" unicode="h" /><glyph d="M336 403V588C336 656 316 700 243 700C145 700 148 607 148 525L155 477C154 571 166 603 189 603C204 603 213 592 213 531V403ZM32 817V403H155V561V586V824Z" glyph-name="h.superior" horiz-adv-x="365" /><glyph d="M0 641V559H386V641ZM526 0V310C526 425 493 500 376 500C223 500 225 330 225 209L232 136C232 290 250 349 295 349C326 349 344 329 344 222V0ZM50 700V0H232V274V318V710Z" glyph-name="hbar" horiz-adv-x="571" unicode="&#295;" /><glyph d="M152 803 285 723 326 770 190 915H114L-22 770L19 723ZM526 0V310C526 425 493 500 376 500C223 500 225 330 225 209L232 136C232 290 250 349 295 349C326 349 344 329 344 222V0ZM50 700V0H232V274V318V710Z" glyph-name="hcircumflex" horiz-adv-x="571" unicode="&#293;" /><glyph d="M56 581 141 540 268 744 151 792ZM256 581 341 540 475 730 363 786Z" glyph-name="hungarumlaut" horiz-adv-x="500" unicode="&#733;" /><glyph d="M28 777 90 718 263 869 186 950ZM238 777 300 718 473 869 396 950Z" glyph-name="hungarumlaut.cap" horiz-adv-x="500" /><glyph d="M60 378V236H337V378Z" glyph-name="hyphen" horiz-adv-x="397" unicode="-" /><glyph d="M60 478V336H337V478Z" glyph-name="hyphen.cap" horiz-adv-x="397" /><glyph d="M50 480V0H232V490ZM55 594H237V740H55Z" glyph-name="i" horiz-adv-x="287" unicode="i" /><glyph d="M50 480V0H232V490ZM55 594H237V740H55Z" glyph-name="i.TRK" horiz-adv-x="287" /><glyph d="M31 688V403H154V694ZM32 752C31 752 155 752 155 751C155 751 155 845 156 845C157 845 33 845 33 846C33 846 33 752 32 752Z" glyph-name="i.superior" horiz-adv-x="189" unicode="&#8305;" /><glyph d="M50 480V0H232V490ZM51 591 115 540 292 698 186 793Z" glyph-name="iacute" horiz-adv-x="282" unicode="&#237;" /><glyph d="M50 480V0H232V490ZM146 558C266 558 315 644 305 762H252C243 722 226 680 146 680C65 680 49 722 40 762H-13C-23 644 26 558 146 558Z" glyph-name="ibreve" horiz-adv-x="282" unicode="&#301;" /><glyph d="M50 480V0H232V490ZM-38 589 13 542 146 652 279 542 330 589 194 774H98Z" glyph-name="icircumflex" horiz-adv-x="282" unicode="&#238;" /><glyph d="M50 480V0H232V490ZM-15 594H117V740H-15ZM175 594H307V740H175Z" glyph-name="idieresis" horiz-adv-x="282" unicode="&#239;" /><glyph d="M50 480V0H232V490ZM0 698 177 540 241 591 106 793Z" glyph-name="igrave" horiz-adv-x="282" unicode="&#236;" /><glyph d="M50 480V0H232V490ZM55 594H237V740H55ZM245 -91C245 -143 249 -249 364 -249C487 -249 529 -163 529 3V198V490L347 480V112C347 3 360 -23 360 -81C360 -119 345 -129 323 -129C295 -129 286 -111 283 -91ZM357 594H539V740H357Z" glyph-name="ij" horiz-adv-x="579" unicode="&#307;" /><glyph d="M50 480V0H232V490ZM-12 735V623H304V735Z" glyph-name="imacron" horiz-adv-x="282" unicode="&#299;" /><glyph d="M179 267C156 267 145 286 145 309C145 331 157 349 179 349C202 349 221 332 231 309C221 284 201 267 179 267ZM450 157C551 157 600 228 600 310C600 394 563 458 461 458C394 458 359 425 319 370C282 427 239 458 170 458C69 458 20 394 20 306C20 227 56 157 158 157C225 157 261 190 301 246C338 189 381 157 450 157ZM439 266C418 266 399 283 388 307C399 331 419 348 440 348C463 348 475 329 475 307C475 284 462 266 439 266Z" glyph-name="infinity" horiz-adv-x="620" unicode="&#8734;" /><glyph d="M344 631C364 631 375 622 383 614L433 661C418 696 376 751 288 751C168 751 116 676 116 553C116 547 116 542 116 536L135 49C135 44 135 39 135 34C135 -12 125 -43 89 -43C69 -43 59 -35 50 -26L0 -73C18 -113 59 -163 145 -163C267 -163 315 -82 315 29C315 33 315 37 315 42L299 541C299 545 299 550 299 554C299 608 311 631 344 631Z" glyph-name="integral" horiz-adv-x="433" unicode="&#8747;" /><glyph d="M34 -137C34 -188 65 -229 133 -229C212 -229 236 -176 231 -115H196C196 -131 188 -151 171 -151C148 -151 143 -132 143 -115C143 -56 174 0 225 0L176 30C120 6 34 -49 34 -137ZM50 480V0H232V490ZM55 594H237V740H55Z" glyph-name="iogonek" horiz-adv-x="282" unicode="&#303;" /><glyph d="M50 480V0H232V490ZM-7 572H31C25 609 32 637 61 637C111 637 130 572 214 572C295 572 336 649 299 763H260C265 727 260 697 231 697C181 697 163 763 78 763C-3 763 -45 690 -7 572Z" glyph-name="itilde" horiz-adv-x="282" unicode="&#297;" /><glyph d="M-40 -91C-40 -143 -36 -249 79 -249C202 -249 244 -163 244 3V198V490L62 480V112C62 3 75 -23 75 -81C75 -119 60 -129 38 -129C10 -129 1 -111 -2 -91ZM72 594H254V740H72Z" glyph-name="j" horiz-adv-x="294" unicode="j" /><glyph d="M-24 355C-24 323 -19 255 54 255C134 255 161 310 161 411C161 437 161 507 161 527V694L38 688V472C38 408 47 393 47 360C47 338 37 332 25 332C9 332 4 344 2 355ZM40 752C40 752 163 752 163 751C163 751 163 845 164 845C165 845 41 845 41 846C41 846 41 752 40 752Z" glyph-name="j.superior" horiz-adv-x="192" /><glyph d="M-40 -91C-40 -143 -36 -249 79 -249C202 -249 244 -163 244 3V198V490L62 480V112C62 3 75 -23 75 -81C75 -119 60 -129 38 -129C10 -129 1 -111 -2 -91ZM-35 589 16 542 149 652 282 542 333 589 197 774H101Z" glyph-name="jcircumflex" horiz-adv-x="294" unicode="&#309;" /><glyph d="M50 700V0H232V710ZM132 238 175 126 533 480H369ZM238 250 342 0H549L348 396Z" glyph-name="k" horiz-adv-x="554" unicode="k" /><glyph d="M32 817V403H155V824ZM87 545 121 470 348 688H227ZM151 549 212 403H350L229 643Z" glyph-name="k.superior" horiz-adv-x="357" /><glyph d="M50 700V0H232V710ZM132 238 175 126 533 480H369ZM238 250 342 0H549L348 396ZM194 -235 281 -251 367 -56H223Z" glyph-name="kcommaaccent" horiz-adv-x="554" unicode="&#311;" /><glyph d="M50 700V0H232V710Z" glyph-name="l" horiz-adv-x="282" unicode="l" /><glyph d="M31 817V403H154V824Z" glyph-name="l.superior" horiz-adv-x="185" /><glyph d="M50 700V0H232V710ZM23 772 69 730 287 803 184 925Z" glyph-name="lacute" horiz-adv-x="282" unicode="&#314;" /><glyph d="M50 700V0H232V710ZM305 490H404L454 710H305Z" glyph-name="lcaron" horiz-adv-x="454" unicode="&#318;" /><glyph d="M50 700V0H232V710ZM64 -235 151 -251 237 -56H93Z" glyph-name="lcommaaccent" horiz-adv-x="282" unicode="&#316;" /><glyph d="M288 269H440V415H288ZM50 700V0H232V710Z" glyph-name="ldot" horiz-adv-x="450" unicode="&#320;" /><glyph d="M236 303 510 417 454 539 70 365V253L454 79L510 201L236 315Z" glyph-name="less" horiz-adv-x="600" unicode="&lt;" /><glyph d="M236 376 525 480 479 609 80 438V326L479 165L525 294L236 388ZM540 134H80V0H540Z" glyph-name="lessequal" horiz-adv-x="620" unicode="&#8804;" /><glyph d="M278 531V162C278 118 298 105 324 105C351 105 358 119 358 136H395C395 45 364 -15 265 -15C164 -15 100 33 101 190L103 474C104 623 163 710 293 710C385 710 438 650 438 554C438 405 334 253 29 145L0 229C274 319 347 451 347 557C347 592 333 608 313 608C292 608 278 589 278 531Z" glyph-name="litre" horiz-adv-x="458" unicode="&#8467;" /><glyph d="M530 164V466H386V164ZM500 466H70V322H500Z" glyph-name="logicalnot" horiz-adv-x="620" unicode="&#172;" /><glyph d="M542 382 365 700H217L40 382V302L217 -10H365L542 302ZM292 159 208 346 292 532 376 346Z" glyph-name="lozenge" horiz-adv-x="582" unicode="&#9674;" /><glyph d="M-10 108 312 359V499L-10 248ZM50 700V0H232V710Z" glyph-name="lslash" horiz-adv-x="282" unicode="&#322;" /><glyph d="M518 0V310C518 425 490 500 373 500C213 500 222 330 222 209L232 136C232 290 247 349 292 349C323 349 336 329 336 222V0ZM804 0V310C804 425 783 500 666 500C516 500 509 330 509 209L518 136C518 290 533 349 578 349C609 349 622 329 622 222V0ZM50 480V0H232V274L225 318L205 490Z" glyph-name="m" horiz-adv-x="849" unicode="m" /><glyph d="M332 403V588C332 656 314 700 242 700C142 700 149 596 149 524L155 477C155 572 164 603 186 603C200 603 209 592 209 531V403ZM509 403V588C509 656 496 700 423 700C329 700 326 596 326 525L332 477C332 572 339 603 362 603C376 603 386 592 386 531V403ZM32 688V403H155V562L150 589L136 694Z" glyph-name="m.superior" horiz-adv-x="537" /><glyph d="M92 735V623H408V735Z" glyph-name="macron" horiz-adv-x="500" unicode="&#175;" /><glyph d="M92 885V773H408V885Z" glyph-name="macron.cap" horiz-adv-x="500" /><glyph d="M540 386H80V242H540Z" glyph-name="minus" horiz-adv-x="620" unicode="&#8722;" /><glyph d="M367 276 344 349C344 195 326 136 281 136C250 136 232 156 232 263V399H190V175C190 60 217 -15 280 -15C366 -15 367 155 367 276ZM232 -250V490L50 480V-250ZM488 -15C587 -15 616 45 616 136H579C579 119 571 105 555 105C530 105 526 126 526 166V490L344 479V231L354 151C354 51 403 -15 488 -15Z" glyph-name="mu" horiz-adv-x="631" unicode="&#181;" /><glyph d="M524 180 199 505 97 404 422 78ZM97 180 199 78 524 404 422 505Z" glyph-name="multiply" horiz-adv-x="620" unicode="&#215;" /><glyph d="M526 0V310C526 425 493 500 376 500C216 500 221 343 221 209L232 136C232 290 250 349 295 349C326 349 344 329 344 222V0ZM50 480V0H232V274L225 318L205 490Z" glyph-name="n" horiz-adv-x="571" unicode="n" /><glyph d="M336 403V588C336 656 316 700 243 700C145 700 148 607 148 525L155 480C155 573 166 603 189 603C204 603 213 592 213 531V403ZM32 688V403H155V562L150 589L136 694Z" glyph-name="n.superior" horiz-adv-x="365" unicode="&#8319;" /><glyph d="M526 0V310C526 425 493 500 376 500C216 500 221 343 221 209L232 136C232 290 250 349 295 349C326 349 344 329 344 222V0ZM50 480V0H232V274L225 318L205 490ZM198 591 262 540 439 698 333 793Z" glyph-name="nacute" horiz-adv-x="571" unicode="&#324;" /><glyph d="M526 0V310C526 425 493 500 376 500C216 500 221 343 221 209L232 136C232 290 250 349 295 349C326 349 344 329 344 222V0ZM50 480V0H232V274L225 318L205 490ZM114 737 250 552H346L482 737L431 784L298 674L165 784Z" glyph-name="ncaron" horiz-adv-x="571" unicode="&#328;" /><glyph d="M526 0V310C526 425 493 500 376 500C216 500 221 343 221 209L232 136C232 290 250 349 295 349C326 349 344 329 344 222V0ZM50 480V0H232V274L225 318L205 490ZM204 -235 291 -251 377 -56H233Z" glyph-name="ncommaaccent" horiz-adv-x="571" unicode="&#326;" /><glyph d="M285 374C231 374 213 409 213 454C213 493 231 533 287 533C336 533 357 499 357 453C357 399 328 374 285 374ZM278 -15C470 -15 567 154 567 342C567 538 485 685 278 685C145 685 39 609 39 452C39 320 116 250 223 250C346 250 393 334 393 414H382V330C382 170 314 134 245 134C181 134 148 170 140 217H45C33 67 116 -15 278 -15Z" glyph-name="nine" horiz-adv-x="596" unicode="9" /><glyph d="M241 305C199 305 193 331 193 355C193 376 200 403 242 403C274 403 286 382 286 353C286 317 266 305 241 305ZM234 -15C400 -15 487 122 487 268C487 419 416 540 233 540C117 540 25 479 25 353C25 252 88 195 180 195C285 195 318 262 320 314L310 315C309 322 308 250 308 257C308 135 249 118 201 118C158 118 128 138 120 176H29C17 46 96 -15 234 -15Z" glyph-name="nine.small" horiz-adv-x="507" /><glyph d="M241 305C199 305 193 331 193 355C193 376 200 403 242 403C274 403 286 382 286 353C286 317 266 305 241 305ZM234 -15C400 -15 487 122 487 268C487 419 416 540 233 540C117 540 25 479 25 353C25 252 88 195 180 195C285 195 318 262 320 314L310 315C309 322 308 250 308 257C308 135 249 118 201 118C158 118 128 138 120 176H29C17 46 96 -15 234 -15Z" glyph-name="nine.small_tab" horiz-adv-x="545" /><glyph d="M292 374C238 374 220 409 220 454C220 493 238 533 294 533C343 533 364 499 364 453C364 399 335 374 292 374ZM285 -15C477 -15 574 154 574 342C574 538 492 685 285 685C152 685 46 609 46 452C46 320 123 250 230 250C353 250 400 334 400 414H389V330C389 170 321 134 252 134C188 134 155 170 147 217H52C40 67 123 -15 285 -15Z" glyph-name="nine.tab" horiz-adv-x="620" /><glyph d="M177 131C146 131 140 151 140 171C140 189 147 211 178 211C204 211 214 194 214 170C214 141 198 131 177 131ZM173 -110C293 -110 355 -7 355 105C355 221 304 312 172 312C88 312 22 266 22 170C22 92 68 49 135 49C211 49 236 100 238 142L230 143C230 147 229 93 229 97C229 3 187 -11 150 -11C116 -11 95 6 89 34H25C17 -62 72 -110 173 -110Z" glyph-name="nineinferior" horiz-adv-x="373" unicode="&#8329;" /><glyph d="M177 634C146 634 140 654 140 674C140 692 147 714 178 714C204 714 214 697 214 673C214 644 198 634 177 634ZM173 393C293 393 355 496 355 608C355 724 304 815 172 815C88 815 22 769 22 673C22 595 68 552 135 552C211 552 236 603 238 645L230 646C230 650 229 596 229 600C229 506 187 492 150 492C116 492 95 509 89 537H25C17 441 72 393 173 393Z" glyph-name="ninesuperior" horiz-adv-x="373" unicode="&#8313;" /><glyph d="M406 598 90 30H216L530 598ZM540 262H80V128H540ZM540 500H80V366H540Z" glyph-name="notequal" horiz-adv-x="620" unicode="&#8800;" /><glyph d="M526 0V310C526 425 493 500 376 500C216 500 221 343 221 209L232 136C232 290 250 349 295 349C326 349 344 329 344 222V0ZM50 480V0H232V274L225 318L205 490ZM124 572H162C156 609 163 637 192 637C242 637 261 572 345 572C426 572 467 649 430 763H391C396 727 391 697 362 697C312 697 294 763 209 763C128 763 86 690 124 572Z" glyph-name="ntilde" horiz-adv-x="571" unicode="&#241;" /><glyph d="M261 0H96L194 665H359ZM677 509V395H62V509ZM511 0H346L445 665H610ZM638 270V156H23V270Z" glyph-name="numbersign" horiz-adv-x="700" unicode="#" /><glyph d="M72 592 477 -5H627V690H478V-2L595 169L248 690H60V0H208V689ZM700.874 341V199H1032.6923V341ZM840 380C726 380 670 444 670 535C670 625 726 690 840 690C954 690 1010 625 1010 535C1010 444 954 380 840 380ZM840 477C866 477 887 495 887 535C887 575 866 593 840 593C815 593 794 574 794 535C794 495 815 477 840 477Z" glyph-name="numero" horiz-adv-x="1082.6923" unicode="&#8470;" /><glyph d="M25 239C25 70 130 -15 273 -15C433 -15 519 82 519 235C519 409 408 500 273 500C126 500 25 390 25 239ZM337 243C337 146 312 110 273 110C227 110 207 153 207 244C207 311 227 359 272 359C323 359 337 303 337 243Z" glyph-name="o" horiz-adv-x="544" unicode="o" /><glyph d="M17 545C17 444 84 394 175 394C277 394 331 452 331 542C331 646 260 700 175 700C81 700 17 634 17 545ZM209 547C209 493 195 474 175 474C149 474 139 497 139 548C139 583 149 610 174 610C203 610 209 578 209 547Z" glyph-name="o.superior" horiz-adv-x="348" /><glyph d="M25 239C25 70 130 -15 273 -15C433 -15 519 82 519 235C519 409 408 500 273 500C126 500 25 390 25 239ZM337 243C337 146 312 110 273 110C227 110 207 153 207 244C207 311 227 359 272 359C323 359 337 303 337 243ZM171 591 235 540 412 698 306 793Z" glyph-name="oacute" horiz-adv-x="544" unicode="&#243;" /><glyph d="M25 239C25 70 130 -15 273 -15C433 -15 519 82 519 235C519 409 408 500 273 500C126 500 25 390 25 239ZM337 243C337 146 312 110 273 110C227 110 207 153 207 244C207 311 227 359 272 359C323 359 337 303 337 243ZM277 558C397 558 446 644 436 762H383C374 722 357 680 277 680C196 680 180 722 171 762H118C108 644 157 558 277 558Z" glyph-name="obreve" horiz-adv-x="544" unicode="&#335;" /><glyph d="M25 239C25 70 130 -15 273 -15C433 -15 519 82 519 235C519 409 408 500 273 500C126 500 25 390 25 239ZM337 243C337 146 312 110 273 110C227 110 207 153 207 244C207 311 227 359 272 359C323 359 337 303 337 243ZM93 589 144 542 277 652 410 542 461 589 325 774H229Z" glyph-name="ocircumflex" horiz-adv-x="544" unicode="&#244;" /><glyph d="M25 239C25 70 130 -15 273 -15C433 -15 519 82 519 235C519 409 408 500 273 500C126 500 25 390 25 239ZM337 243C337 146 312 110 273 110C227 110 207 153 207 244C207 311 227 359 272 359C323 359 337 303 337 243ZM116 594H248V740H116ZM306 594H438V740H306Z" glyph-name="odieresis" horiz-adv-x="544" unicode="&#246;" /><glyph d="M337 243C337 146 312 110 273 110C227 110 207 153 207 244C207 311 227 359 272 359C323 359 337 303 337 243ZM25 239C25 70 130 -15 273 -15C433 -15 489 97 489 235C489 406 408 500 273 500C126 500 25 390 25 239ZM365 223C365 93 404 -15 567 -15C693 -15 764 69 764 176H716C710 132 674 102 614 102C518 102 503 168 503 238V263C503 339 534 373 568 373C606 373 612 345 612 317C612 306 610 288 609 283L419 273L417 218H747C751 239 755 290 755 319C755 423 689 500 567 500C439 500 365 366 365 223Z" glyph-name="oe" horiz-adv-x="789" unicode="&#339;" /><glyph d="M265 -137C265 -188 296 -229 364 -229C443 -229 467 -176 462 -115H427C427 -131 421 -151 404 -151C382 -151 377 -136 377 -119C377 -60 401 15 446 79L433 80C359 12 265 -49 265 -137Z" glyph-name="ogonek" horiz-adv-x="500" unicode="&#731;" /><glyph d="M25 239C25 70 130 -15 273 -15C433 -15 519 82 519 235C519 409 408 500 273 500C126 500 25 390 25 239ZM337 243C337 146 312 110 273 110C227 110 207 153 207 244C207 311 227 359 272 359C323 359 337 303 337 243ZM131 698 308 540 372 591 237 793Z" glyph-name="ograve" horiz-adv-x="544" unicode="&#242;" /><glyph d="M25 239C25 70 130 -15 273 -15C433 -15 519 82 519 235C519 409 408 500 273 500C126 500 25 390 25 239ZM337 243C337 146 312 110 273 110C227 110 207 153 207 244C207 311 227 359 272 359C323 359 337 303 337 243ZM102 581 187 540 314 744 197 792ZM302 581 387 540 521 730 409 786Z" glyph-name="ohungarumlaut" horiz-adv-x="544" unicode="&#337;" /><glyph d="M25 239C25 70 130 -15 273 -15C433 -15 519 82 519 235C519 409 408 500 273 500C126 500 25 390 25 239ZM337 243C337 146 312 110 273 110C227 110 207 153 207 244C207 311 227 359 272 359C323 359 337 303 337 243ZM119 735V623H435V735Z" glyph-name="omacron" horiz-adv-x="544" unicode="&#333;" /><glyph d="M265 682 30 543 58 458 262 522 182 554V0H373V682Z" glyph-name="one" horiz-adv-x="453" unicode="1" /><glyph d="M15 423 41 348 213 386 136 414V0H321V530H217Z" glyph-name="one.small" horiz-adv-x="382" /><glyph d="M62 420 77 340 276 386 199 414V0H384V530H280ZM65 0H500V111H65Z" glyph-name="one.small_tab" horiz-adv-x="545" /><glyph d="M307 682 45 547 73 462 304 522 224 554V0H415V682ZM74 0H557V121H74Z" glyph-name="one.tab" horiz-adv-x="620" /><glyph d="M18 604 138 675H203V355H84V594L132 578L34 556ZM495 170C476 230 504 324 616 324C694 324 739 280 739 216C739 119 636 77 554 19L585 86H745V0H495V49C549 91 614 141 614 196C614 216 605 229 589 229C564 229 553 209 556 170ZM476 675H615L270 0H130Z" glyph-name="onehalf" horiz-adv-x="768" unicode="&#189;" /><glyph d="M164 309 18 227 36 171 162 203 107 224V-100H237V309Z" glyph-name="oneinferior" horiz-adv-x="284" unicode="&#8321;" /><glyph d="M18 604 138 675H203V355H84V594L132 578L34 556ZM581 0V256L610 258L477 84L474 143H740V64H448V138L588 320H696V0ZM476 675H615L270 0H130Z" glyph-name="onequarter" horiz-adv-x="752" unicode="&#188;" /><glyph d="M164 812 18 730 36 674 162 706 107 727V403H237V812Z" glyph-name="onesuperior" horiz-adv-x="284" unicode="&#185;" /><glyph d="M279 398C298 398 317 401 325 405V429C319.8738 433.3375 315.8361 437.6751 312.8254 445.1396C308.2011 456.605 306 475.4479 306 513V588C306 659 265 700 175 700C74 700 43 645 43 587H84C91 605 107 623 137 623C174 623 190 604 190 572V558C177 564 154 567 138 567C52 567 20 527 20 475C20 433 46 395 110 395C153 395 180 414 195 438C208 406 241 398 279 398ZM159 462C144 462 135 472 135 488C135 514 150 525 170 525C179 525 186 523 190 522V518C190 486 185 462 159 462Z" glyph-name="ordfeminine" horiz-adv-x="345" unicode="&#170;" /><glyph d="M183 474C208 474 224 495 224 547C224 581 215 610 182 610C153 610 140 584 140 548C140 497 153 474 183 474ZM183 394C91 394 20 445 20 545C20 635 88 700 183 700C270 700 344 646 344 543C344 452 286 394 183 394Z" glyph-name="ordmasculine" horiz-adv-x="364" unicode="&#186;" /><glyph d="M462 500 30 -15H95L524 500ZM25 239C25 70 130 -15 273 -15C433 -15 519 82 519 235C519 409 408 500 273 500C126 500 25 390 25 239ZM337 243C337 146 312 110 273 110C227 110 207 153 207 244C207 311 227 359 272 359C323 359 337 303 337 243Z" glyph-name="oslash" horiz-adv-x="549" unicode="&#248;" /><glyph d="M462 500 30 -15H95L524 500ZM25 239C25 70 130 -15 273 -15C433 -15 519 82 519 235C519 409 408 500 273 500C126 500 25 390 25 239ZM337 243C337 146 312 110 273 110C227 110 207 153 207 244C207 311 227 359 272 359C323 359 337 303 337 243ZM179 591 243 540 420 698 314 793Z" glyph-name="oslashacute" horiz-adv-x="549" unicode="&#511;" /><glyph d="M25 239C25 70 130 -15 273 -15C433 -15 519 82 519 235C519 409 408 500 273 500C126 500 25 390 25 239ZM337 243C337 146 312 110 273 110C227 110 207 153 207 244C207 311 227 359 272 359C323 359 337 303 337 243ZM123 572H161C155 609 162 637 191 637C241 637 260 572 344 572C425 572 466 649 429 763H390C395 727 390 697 361 697C311 697 293 763 208 763C127 763 85 690 123 572Z" glyph-name="otilde" horiz-adv-x="544" unicode="&#245;" /><glyph d="M206 250C206 76 238 -15 359 -15C469 -15 548 95 548 246C548 415 464 500 359 500C220 500 206 366 206 250ZM362 223C362 164 342 111 297 111C246 111 232 170 232 224C232 321 257 359 296 359C342 359 362 316 362 223ZM50 480V-240H232V279L221 323L201 490Z" glyph-name="p" horiz-adv-x="573" unicode="p" /><glyph d="M138 552C138 449 153 394 231 394C300 394 349 460 349 549C349 649 298 700 231 700C143 700 138 618 138 552ZM223 534C223 504 214 474 189 474C158 474 155 509 155 535C155 590 168 610 188 610C215 610 223 586 223 534ZM32 688V261H155V567L147 593L134 694Z" glyph-name="p.superior" horiz-adv-x="365" /><glyph d="M574 -113V690H383V-113ZM318 -113V690H234C123 690 30 617 30 486C30 361 112 282 234 282V-113ZM242 557H629V690H242Z" glyph-name="paragraph" horiz-adv-x="684" unicode="&#182;" /><glyph d="M254 270C254 487 340 620 390 683L300 763C172 665 50 487 50 269C50 51 172 -115 300 -213L390 -133C340 -70 254 53 254 270Z" glyph-name="parenleft" horiz-adv-x="400" unicode="(" /><glyph d="M254 320C254 537 340 670 390 733L300 813C172 715 50 537 50 319C50 101 172 -65 300 -163L390 -83C340 -20 254 103 254 320Z" glyph-name="parenleft.cap" horiz-adv-x="400" /><glyph d="M231 259C231 446 297 553 341 607L262 676C148 592 50 446 50 258C50 71 148 -74 262 -158L341 -89C297 -35 231 73 231 259Z" glyph-name="parenleft.small" horiz-adv-x="351" /><glyph d="M146 280C146 63 60 -70 10 -133L100 -213C228 -115 350 63 350 281C350 499 228 665 100 763L10 683C60 620 146 497 146 280Z" glyph-name="parenright" horiz-adv-x="400" unicode=")" /><glyph d="M146 330C146 113 60 -20 10 -83L100 -163C228 -65 350 113 350 331C350 549 228 715 100 813L10 733C60 670 146 547 146 330Z" glyph-name="parenright.cap" horiz-adv-x="400" /><glyph d="M120 258C120 71 54 -36 10 -90L89 -159C203 -75 301 71 301 259C301 446 203 591 89 675L10 606C54 552 120 444 120 258Z" glyph-name="parenright.small" horiz-adv-x="351" /><glyph d="M259 700C181 700 120 678 91 658L134 566C157 575 184 582 212 583C282 584 355 541 355 361C355 142 326 110 273 110C235 110 207 144 207 224C207 310 230 349 281 349C347 349 348 267 348 207L391 287C386 361 366 480 233 480C92 480 25 370 25 224C25 80 113 -15 275 -15C467 -15 541 155 541 335C541 565 425 700 259 700Z" glyph-name="partialdiff" horiz-adv-x="566" unicode="&#8706;" /><glyph d="M168 423C77 423 20 478 20 565C20 656 77 707 168 707C257 707 314 656 314 565C314 478 257 423 168 423ZM167 528C190 528 204 544 204 564C204 584 190 601 167 601C144 601 131 584 131 564C131 544 144 528 167 528ZM584 -15C493 -15 436 40 436 127C436 218 493 269 584 269C673 269 730 218 730 127C730 40 673 -15 584 -15ZM583 90C606 90 620 106 620 126C620 146 606 163 583 163C560 163 547 146 547 126C547 106 560 90 583 90ZM461 675H600L255 0H115Z" glyph-name="percent" horiz-adv-x="750" unicode="%" /><glyph d="M60 82C60 26 97 -15 158 -15C215 -15 251 25 251 81C251 130 214 176 157 176C96 176 60 131 60 82Z" glyph-name="period" horiz-adv-x="311" unicode="." /><glyph d="M40 340C40 284 77 243 138 243C195 243 231 283 231 339C231 388 194 434 137 434C76 434 40 389 40 340Z" glyph-name="periodcentered" horiz-adv-x="271" unicode="&#183;" /><glyph d="M40 357C40 301 77 260 138 260C195 260 231 300 231 356C231 405 194 451 137 451C76 451 40 406 40 357Z" glyph-name="periodcentered.cap" horiz-adv-x="271" /><glyph d="M168 423C77 423 20 478 20 565C20 656 77 707 168 707C257 707 314 656 314 565C314 478 257 423 168 423ZM167 528C190 528 204 544 204 564C204 584 190 601 167 601C144 601 131 584 131 564C131 544 144 528 167 528ZM584 -15C493 -15 436 40 436 127C436 218 493 269 584 269C673 269 730 218 730 127C730 40 673 -15 584 -15ZM583 90C606 90 620 106 620 126C620 146 606 163 583 163C560 163 547 146 547 126C547 106 560 90 583 90ZM924 -15C833 -15 776 40 776 127C776 218 833 269 924 269C1013 269 1070 218 1070 127C1070 40 1013 -15 924 -15ZM923 90C946 90 960 106 960 126C960 146 946 163 923 163C900 163 887 146 887 126C887 106 900 90 923 90ZM461 675H600L255 0H115Z" glyph-name="perthousand" horiz-adv-x="1090" unicode="&#8240;" /><glyph d="M354 166C354 22 423 -15 508 -15C607 -15 636 45 636 136H599C597 111 585 105 569 105C544 105 536 124 536 164V469H354ZM95 470V230C95 133 90 74 75 0H197C251 44 277 122 277 232V470ZM10 480V388H632V480Z" glyph-name="pi" horiz-adv-x="656" unicode="&#960;" /><glyph d="M382 84V544H238V84ZM540 386H80V242H540Z" glyph-name="plus" horiz-adv-x="620" unicode="+" /><glyph d="M540 396H80V262H540ZM382 84V554H238V84ZM541 120H81V-14H541Z" glyph-name="plusminus" horiz-adv-x="620" unicode="&#177;" /><glyph d="M60 690V-130H251V568L240 555H461L450 568V-130H641V690Z" glyph-name="product" horiz-adv-x="701" unicode="&#8719;" /><glyph d="M25 239C25 70 109 -15 214 -15C353 -15 369 93 369 246C369 401 335 500 214 500C104 500 25 390 25 239ZM341 243C341 146 316 110 277 110C231 110 211 154 211 245C211 304 231 358 276 358C327 358 341 297 341 243ZM341 341V-240H524V490L372 480L352 381Z" glyph-name="q" horiz-adv-x="574" unicode="q" /><glyph d="M17 545C17 445 68 394 134 394C223 394 227 453 227 542C227 633 212 700 134 700C66 700 17 634 17 545ZM211 547C211 493 198 474 177 474C151 474 143 499 143 549C143 579 152 609 177 609C207 609 211 573 211 547ZM211 607V261H334V694L232 688L218 631Z" glyph-name="q.superior" horiz-adv-x="366" /><glyph d="M276 287C369 298 485 345 485 501C485 641 379 700 264 700C143 700 29 642 41 453H121C132 505 162 542 218 542C271 542 300 511 300 460C300 391 259 345 156 345L169 207H264ZM130 74C130 18 167 -15 228 -15C285 -15 321 18 321 74C321 126 285 159 228 159C167 159 130 126 130 74Z" glyph-name="question" horiz-adv-x="535" unicode="?" /><glyph d="M252 200 259 260C327 266 412 294 412 399C412 495 333 540 227 540C125 540 31 491 41 366H119C125 405 145 434 185 434C221 434 241 413 241 378C241 332 204 307 138 303L147 200ZM116 71C116 17 152 -15 207 -15C259 -15 295 17 295 71C295 121 260 153 208 153C153 153 116 121 116 71Z" glyph-name="question.small" horiz-adv-x="462" /><glyph d="M249 188C156 177 40 130 40 -26C40 -166 146 -225 261 -225C382 -225 496 -167 484 22H404C393 -30 363 -67 307 -67C254 -67 225 -36 225 15C225 84 266 130 369 130L356 268H261ZM395 401C395 457 358 490 297 490C240 490 204 457 204 401C204 349 240 316 297 316C358 316 395 349 395 401Z" glyph-name="questiondown" horiz-adv-x="525" unicode="&#191;" /><glyph d="M259 398C166 387 50 340 50 184C50 44 156 -15 271 -15C392 -15 506 43 494 232H414C403 180 373 143 317 143C264 143 235 174 235 225C235 294 276 340 379 340L366 478H271ZM405 611C405 667 368 700 307 700C250 700 214 667 214 611C214 559 250 526 307 526C368 526 405 559 405 611Z" glyph-name="questiondown.cap" horiz-adv-x="534.8704" /><glyph d="M210 325 203 265C135 259 50 231 50 126C50 30 129 -15 235 -15C337 -15 431 34 421 159H343C337 120 317 91 277 91C241 91 221 112 221 147C221 193 258 218 324 222L315 325ZM346 454C346 508 310 540 255 540C203 540 167 508 167 454C167 404 202 372 254 372C309 372 346 404 346 454Z" glyph-name="questiondown.small" horiz-adv-x="461.7322" /><glyph d="M154 527H30V710H154ZM324 527H200V710H324Z" glyph-name="quotedbl" horiz-adv-x="344" unicode="&quot;" /><glyph d="M30 -138 63 -188C129 -161 226 -63 226 71C226 129 192 173 127 173C74 173 34 133 34 80C34 22 65 -9 124 -9C119 -57 74 -112 30 -138ZM270 -138 303 -188C369 -161 466 -63 466 71C466 129 432 173 367 173C314 173 274 133 274 80C274 22 305 -9 364 -9C359 -57 314 -112 270 -138Z" glyph-name="quotedblbase" horiz-adv-x="496" unicode="&#8222;" /><glyph d="M211 658 176 710C107 676 30 595 30 481C30 423 64 379 129 379C182 379 222 419 222 472C222 530 191 561 132 561C141 599 173 633 211 658ZM451 658 416 710C347 676 270 595 270 481C270 423 304 379 369 379C422 379 462 419 462 472C462 530 431 561 372 561C381 599 413 633 451 658Z" glyph-name="quotedblleft" horiz-adv-x="492" unicode="&#8220;" /><glyph d="M41 431 76 379C145 413 222 494 222 608C222 666 188 710 123 710C70 710 30 670 30 617C30 559 61 528 120 528C111 490 79 456 41 431ZM281 431 316 379C385 413 462 494 462 608C462 666 428 710 363 710C310 710 270 670 270 617C270 559 301 528 360 528C351 490 319 456 281 431Z" glyph-name="quotedblright" horiz-adv-x="492" unicode="&#8221;" /><glyph d="M211 658 176 710C107 676 30 595 30 481C30 423 64 379 129 379C182 379 222 419 222 472C222 530 191 561 132 561C141 599 173 633 211 658Z" glyph-name="quoteleft" horiz-adv-x="252" unicode="&#8216;" /><glyph d="M41 431 76 379C145 413 222 494 222 608C222 666 188 710 123 710C70 710 30 670 30 617C30 559 61 528 120 528C111 490 79 456 41 431Z" glyph-name="quoteright" horiz-adv-x="252" unicode="&#8217;" /><glyph d="M30 -138 63 -188C129 -161 226 -63 226 71C226 129 192 173 127 173C74 173 34 133 34 80C34 22 65 -9 124 -9C119 -57 74 -112 30 -138Z" glyph-name="quotesinglbase" horiz-adv-x="256" unicode="&#8218;" /><glyph d="M154 527H30V710H154Z" glyph-name="quotesingle" horiz-adv-x="184" unicode="'" /><glyph d="M335 500C217 500 213 331 213 210L232 146C232 322 267 357 305 357C328.1211 357 341.7074 344.2869 347.786 324.4355C349.3316 319.388 350.3918 313.8789 351 308H421C428 329 433 347 433 385C433 440 403 500 335 500ZM50 480V0H232V274L222 318L202 490Z" glyph-name="r" horiz-adv-x="438" unicode="r" /><glyph d="M216 700C144 700 143 600 143 528L155 486C155 591 179 608 199 608C211 608 218 602 221 591C222 589 222 586 222 584H269C274 597 277 608 277 631C277 665 257 700 216 700ZM32 688V403H155V566L148 593L134 694Z" glyph-name="r.superior" horiz-adv-x="282" /><glyph d="M335 500C217 500 213 331 213 210L232 146C232 322 267 357 305 357C328.1211 357 341.7074 344.2869 347.786 324.4355C349.3316 319.388 350.3918 313.8789 351 308H421C428 329 433 347 433 385C433 440 403 500 335 500ZM50 480V0H232V274L222 318L202 490ZM141 591 205 540 382 698 276 793Z" glyph-name="racute" horiz-adv-x="438" unicode="&#341;" /><glyph d="M221 299H-10V217H70L64 221L185 -150H379L621 710H444L259 -45H319Z" glyph-name="radical" horiz-adv-x="611" unicode="&#8730;" /><glyph d="M335 500C217 500 213 331 213 210L232 146C232 322 267 357 305 357C328.1211 357 341.7074 344.2869 347.786 324.4355C349.3316 319.388 350.3918 313.8789 351 308H421C428 329 433 347 433 385C433 440 403 500 335 500ZM50 480V0H232V274L222 318L202 490ZM35 737 171 552H267L403 737L352 784L219 674L86 784Z" glyph-name="rcaron" horiz-adv-x="438" unicode="&#345;" /><glyph d="M335 500C217 500 213 331 213 210L232 146C232 322 267 357 305 357C328.1211 357 341.7074 344.2869 347.786 324.4355C349.3316 319.388 350.3918 313.8789 351 308H421C428 329 433 347 433 385C433 440 403 500 335 500ZM50 480V0H232V274L222 318L202 490ZM62 -235 149 -251 235 -56H91Z" glyph-name="rcommaaccent" horiz-adv-x="438" unicode="&#343;" /><glyph d="M286 207C440 207 542 314 542 459C542 603 441 710 286 710C131 710 30 603 30 459C30 314 132 207 286 207ZM286 266C149 266 94 354 94 459C94 565 150 651 286 651C412 651 478 565 478 459C478 354 423 266 286 266ZM367 325C381 325 405 328 413 332V343C402 347 398 354 398 383V394C398 433 383 451 345 453C380 461 402 480 402 518C402 566 365 587 303 587H180V329H269V423H286C305 423 308 413 308 391C308 339 323 325 367 325ZM287 528C306 528 317 519 317 500C317 483 308 472 284 472H269V528Z" glyph-name="registered" horiz-adv-x="572" unicode="&#174;" /><glyph d="M109 693C109 620 166 562 249 562C335 562 390 620 390 693C390 766 335 823 249 823C168 823 109 766 109 693ZM295 679C295 652 275 631 250 631C222 631 203 652 203 679C203 707 222 728 250 728C275 728 295 707 295 679Z" glyph-name="ring" horiz-adv-x="500" unicode="&#730;" /><glyph d="M109 841C109 768 166 710 249 710C335 710 390 768 390 841C390 914 335 971 249 971C168 971 109 914 109 841ZM295 827C295 800 275 779 250 779C222 779 203 800 203 827C203 855 222 876 250 876C275 876 295 855 295 827Z" glyph-name="ring.cap" horiz-adv-x="500" /><glyph d="M26 152C26 48 95 -15 216 -15C361 -15 425 60 425 150C425 225 385 274 290 304C221 326 211 335 211 359C211 380 231 396 265 396C312 396 329 357 334 330H405C425 435 358 500 236 500C108 500 34 421 34 325C34 232 91 184 181 157C232 142 249 131 249 105C249 80 229 68 190 68C136 68 96 100 81 152Z" glyph-name="s" horiz-adv-x="450" unicode="s" /><glyph d="M23 493C23 431 67 394 142 394C237 394 276 440 276 493C276 538 251 568 193 586C151 599 147 605 147 615C147 625 155 634 174 634C203 634 212 614 216 597H263C277 661 235 700 157 700C74 700 27 651 27 593C27 537 63 507 119 491C147 483 157 479 157 465C157 454 147 447 124 447C94 447 69 463 60 493Z" glyph-name="s.superior" horiz-adv-x="287" /><glyph d="M26 152C26 48 95 -15 216 -15C361 -15 425 60 425 150C425 225 385 274 290 304C221 326 211 335 211 359C211 380 231 396 265 396C312 396 329 357 334 330H405C425 435 358 500 236 500C108 500 34 421 34 325C34 232 91 184 181 157C232 142 249 131 249 105C249 80 229 68 190 68C136 68 96 100 81 152ZM131 591 195 540 372 698 266 793Z" glyph-name="sacute" horiz-adv-x="450" unicode="&#347;" /><glyph d="M26 152C26 48 95 -15 216 -15C361 -15 425 60 425 150C425 225 385 274 290 304C221 326 211 335 211 359C211 380 231 396 265 396C312 396 329 357 334 330H405C425 435 358 500 236 500C108 500 34 421 34 325C34 232 91 184 181 157C232 142 249 131 249 105C249 80 229 68 190 68C136 68 96 100 81 152ZM46 737 182 552H278L414 737L363 784L230 674L97 784Z" glyph-name="scaron" horiz-adv-x="450" unicode="&#353;" /><glyph d="M26 152C26 48 95 -15 216 -15C361 -15 425 60 425 150C425 225 385 274 290 304C221 326 211 335 211 359C211 380 231 396 265 396C312 396 329 357 334 330H405C425 435 358 500 236 500C108 500 34 421 34 325C34 232 91 184 181 157C232 142 249 131 249 105C249 80 229 68 190 68C136 68 96 100 81 152ZM151 -117C143 -169 168 -212 240 -212C292 -212 336 -179 336 -118C336 -50 276 -25 216 -42L240 -40L237 0L197 3L177 -69L197 -85C227 -81 244 -94 244 -117C244 -138 230 -150 213 -150C193 -150 183 -140 183 -117Z" glyph-name="scedilla" horiz-adv-x="450" unicode="&#351;" /><glyph d="M464 252C464 403 385 490 222 490C96 490 25 406 25 299H73C79 343 115 373 175 373C271 373 286 307 286 237V212C286 136 255 102 221 102C183 102 177 130 177 158C177 169 179 187 180 192L370 202L372 257H42C38 236 34 185 34 156C34 52 101 -25 232 -25C370 -25 464 104 464 252Z" glyph-name="schwa" horiz-adv-x="489" unicode="&#601;" /><glyph d="M26 152C26 48 95 -15 216 -15C361 -15 425 60 425 150C425 225 385 274 290 304C221 326 211 335 211 359C211 380 231 396 265 396C312 396 329 357 334 330H405C425 435 358 500 236 500C108 500 34 421 34 325C34 232 91 184 181 157C232 142 249 131 249 105C249 80 229 68 190 68C136 68 96 100 81 152ZM46 589 97 542 230 652 363 542 414 589 278 774H182Z" glyph-name="scircumflex" horiz-adv-x="450" unicode="&#349;" /><glyph d="M26 152C26 48 95 -15 216 -15C361 -15 425 60 425 150C425 225 385 274 290 304C221 326 211 335 211 359C211 380 231 396 265 396C312 396 329 357 334 330H405C425 435 358 500 236 500C108 500 34 421 34 325C34 232 91 184 181 157C232 142 249 131 249 105C249 80 229 68 190 68C136 68 96 100 81 152ZM119 -235 206 -251 292 -56H148Z" glyph-name="scommaaccent" horiz-adv-x="450" unicode="&#537;" /><glyph d="M414 521H476C476 615 413 690 276 690C133 690 62 614 62 513C62 401 160 364 238 331C289 309 332 289 332 249C332 224 322 209 309 194L398 155C441 180 490 235 490 306C490 404 415 440 349 467C299 489 254 505 254 541C254 567 271 593 314 593C379 593 408 553 414 521ZM112 26H50C50 -77 120 -156 257 -156C400 -156 490 -90 490 21C490 136 383 173 301 208C251 229 210 250 210 288C210 313 220 328 233 343L144 384C102 358 52 313 52 233C52 143 119 105 182 77C241 52 297 35 297 -7C297 -39 276 -59 218 -59C141 -59 118 -6 112 26Z" glyph-name="section" horiz-adv-x="540" unicode="&#167;" /><glyph d="M57 -137 90 -187C156 -160 253 -62 253 72C253 130 219 174 154 174C101 174 61 134 61 81C61 23 92 -8 151 -8C146 -56 101 -111 57 -137ZM60 406C60 355 97 308 158 308C215 308 251 355 251 406C251 452 215 499 158 499C97 499 60 452 60 406Z" glyph-name="semicolon" horiz-adv-x="313" unicode=";" /><glyph d="M512 675H30V531H406L380 582C182 389 110 225 90 0H290C311 162 341 327 512 574Z" glyph-name="seven" horiz-adv-x="532" unicode="7" /><glyph d="M30 530V403H349L324 447C156 304 98 185 78 0H272C292 129 309 249 452 441V530Z" glyph-name="seven.small" horiz-adv-x="472" /><glyph d="M347 0C359 134 373 253 507 441V530H54V322H159V403H332C216 285 171 164 153 0Z" glyph-name="seven.small_tab" horiz-adv-x="545" /><glyph d="M344 0C363 152 460 403 589 574V675H57V435H172V531H405C274 392 167 186 144 0Z" glyph-name="seven.tab" horiz-adv-x="620" /><glyph d="M320 306H16V211H248L230 244C108 133 65 39 51 -100H187C200 -2 216 92 320 239Z" glyph-name="seveninferior" horiz-adv-x="339" unicode="&#8327;" /><glyph d="M320 809H16V714H248L230 747C108 636 65 542 51 403H187C200 501 216 595 320 742Z" glyph-name="sevensuperior" horiz-adv-x="339" unicode="&#8311;" /><glyph d="M311 296C365 296 383 261 383 216C383 177 365 137 309 137C260 137 239 171 239 217C239 271 268 296 311 296ZM318 685C126 685 29 516 29 328C29 132 111 -15 318 -15C451 -15 557 61 557 218C557 350 480 420 373 420C250 420 203 336 203 256H214V340C214 500 282 536 351 536C415 536 448 500 456 453H551C563 603 480 685 318 685Z" glyph-name="six" horiz-adv-x="596" unicode="6" /><glyph d="M266 219C308 219 314 193 314 169C314 148 307 121 266 121C233 121 221 141 221 171C221 207 242 219 266 219ZM274 540C107 540 20 402 20 256C20 105 91 -15 274 -15C390 -15 483 45 483 171C483 272 419 329 327 329C223 329 189 262 187 210L197 209C199 202 199 274 199 267C199 388 258 406 306 406C349 406 380 386 387 348H478C490 478 411 540 274 540Z" glyph-name="six.small" horiz-adv-x="508" /><glyph d="M266 219C308 219 314 193 314 169C314 148 307 121 266 121C233 121 221 141 221 171C221 207 242 219 266 219ZM274 540C107 540 20 402 20 256C20 105 91 -15 274 -15C390 -15 483 45 483 171C483 272 419 329 327 329C223 329 189 262 187 210L197 209C199 202 199 274 199 267C199 388 258 406 306 406C349 406 380 386 387 348H478C490 478 411 540 274 540Z" glyph-name="six.small_tab" horiz-adv-x="545" /><glyph d="M328 296C382 296 400 261 400 216C400 177 382 137 326 137C277 137 256 171 256 217C256 271 285 296 328 296ZM335 685C143 685 46 516 46 328C46 132 128 -15 335 -15C468 -15 574 61 574 218C574 350 497 420 390 420C267 420 220 336 220 256H231V340C231 500 299 536 368 536C432 536 465 500 473 453H568C580 603 497 685 335 685Z" glyph-name="six.tab" horiz-adv-x="620" /><glyph d="M194 71C223 71 231 51 231 30C231 13 223 -9 193 -9C167 -9 157 8 157 31C157 60 174 71 194 71ZM198 312C78 312 16 209 16 97C16 -19 67 -110 199 -110C282 -110 349 -64 349 32C349 110 303 153 236 153C160 153 134 102 133 60L140 59C141 55 141 109 141 105C141 199 184 213 221 213C255 213 276 196 282 168H346C354 264 298 312 198 312Z" glyph-name="sixinferior" horiz-adv-x="373" unicode="&#8326;" /><glyph d="M194 574C223 574 231 554 231 533C231 516 223 494 193 494C167 494 157 511 157 534C157 563 174 574 194 574ZM198 815C78 815 16 712 16 600C16 484 67 393 199 393C282 393 349 439 349 535C349 613 303 656 236 656C160 656 134 605 133 563L140 562C141 558 141 612 141 608C141 702 184 716 221 716C255 716 276 699 282 671H346C354 767 298 815 198 815Z" glyph-name="sixsuperior" horiz-adv-x="373" unicode="&#8310;" /><glyph d="M175 -88 453 710H278L0 -88Z" glyph-name="slash" horiz-adv-x="453" unicode="/" /><glyph glyph-name="space" horiz-adv-x="225" unicode=" " /><glyph d="M373 535C427 535 452 502 463 460H560C560 618 468 685 347 685C194 685 113 583 113 471C113 349 147 310 147 222C147 136 65 86 65 86L101 -7C135 5 212 23 255 23C343 23 359 -10 438 -10C512 -10 563 47 580 110L546 144C530 134 512 129 495 129C457 129 446 161 380 161C312 161 248 114 217 94L221 90C300 157 324 191 324 244C324 320 287 370 287 441C287 513 327 535 373 535ZM443 386H47V282H443Z" glyph-name="sterling" horiz-adv-x="620" unicode="&#163;" /><glyph d="M50 -135H567V0H259L449 236V322L260 555H567V690H50V570L282 274L50 -18Z" glyph-name="summation" horiz-adv-x="617" unicode="&#8721;" /><glyph d="M58 190C58 28 121 -15 222 -15C321 -15 352 45 352 136H315C315 119 308 105 281 105C255 105 240 118 240 162V590L58 575ZM0 460V398H342V480H67Z" glyph-name="t" horiz-adv-x="367" unicode="t" /><glyph d="M36 522C36 421 79 394 144 394C206 394 226 432 226 490H201C201 480 198 471 183 471C169 471 159 479 159 505V752L36 742ZM2 675V636H220V688H43Z" glyph-name="t.superior" horiz-adv-x="237" /><glyph d="M10 310V228H352V310ZM63 190C63 28 126 -15 227 -15C326 -15 357 45 357 136H320C320 119 313 105 286 105C260 105 245 118 245 162V590L63 575ZM5 460V398H347V480H72Z" glyph-name="tbar" horiz-adv-x="377" unicode="&#359;" /><glyph d="M302 520H401L451 710H302ZM58 190C58 28 121 -15 222 -15C321 -15 352 45 352 136H315C315 119 308 105 281 105C255 105 240 118 240 162V590L58 575ZM0 460V398H342V480H67Z" glyph-name="tcaron" horiz-adv-x="377" unicode="&#357;" /><glyph d="M58 190C58 28 121 -15 222 -15C321 -15 352 45 352 136H315C315 119 308 105 281 105C255 105 240 118 240 162V590L58 575ZM0 460V398H342V480H67ZM125 -117C117 -169 142 -212 214 -212C266 -212 310 -179 310 -118C310 -50 250 -25 190 -42L214 -40L211 0L171 3L151 -69L171 -85C201 -81 218 -94 218 -117C218 -138 204 -150 187 -150C167 -150 157 -140 157 -117Z" glyph-name="tcedilla" horiz-adv-x="367" unicode="&#355;" /><glyph d="M58 190C58 28 121 -15 222 -15C321 -15 352 45 352 136H315C315 119 308 105 281 105C255 105 240 118 240 162V590L58 575ZM0 460V398H342V480H67ZM124 -235 211 -251 297 -56H153Z" glyph-name="tcommaaccent" horiz-adv-x="367" unicode="&#539;" /><glyph d="M206 249C206 75 238 -16 359 -16C469 -16 548 94 548 245C548 414 464 499 359 499C220 499 206 365 206 249ZM362 222C362 163 342 110 297 110C246 110 232 169 232 223C232 320 257 358 296 358C342 358 362 315 362 222ZM50 479V-241H232V278L221 322L201 489ZM50 700V0H232V710Z" glyph-name="thorn" horiz-adv-x="573" unicode="&#254;" /><glyph d="M194 328H240C367 328 527 350 527 502C527 626 420 685 290 685C171 685 42 617 50 453H136C148 500 181 536 241 536C298 536 329 509 329 464C329 403 277 389 214 389H178V296H224C291 296 341 276 341 218C341 167 302 138 240 138C183 138 134 169 124 230H31C19 43 145 -15 286 -15C444 -15 545 63 545 191C545 346 367 361 240 361H194Z" glyph-name="three" horiz-adv-x="578" unicode="3" /><glyph d="M43 352H125C139 382 164 406 206 406C249 406 272 389 272 360C272 317 232 310 182 310H157V225H192C242 225 280 213 280 173C280 140 252 122 206 122C167 122 127 141 115 184H26C16 29 132 -15 251 -15C390 -15 478 47 478 149C478 275 316 285 208 285H169V256H208C319 256 463 270 463 394C463 493 367 540 254 540C156 540 37 487 43 352Z" glyph-name="three.small" horiz-adv-x="508" /><glyph d="M43 352H125C139 382 164 406 206 406C249 406 272 389 272 360C272 317 232 310 182 310H157V225H192C242 225 280 213 280 173C280 140 252 122 206 122C167 122 127 141 115 184H26C16 29 132 -15 251 -15C390 -15 478 47 478 149C478 275 316 285 208 285H169V256H208C319 256 463 270 463 394C463 493 367 540 254 540C156 540 37 487 43 352Z" glyph-name="three.small_tab" horiz-adv-x="545" /><glyph d="M212 328H258C385 328 545 350 545 502C545 626 438 685 308 685C189 685 60 617 68 453H154C166 500 199 536 259 536C316 536 347 509 347 464C347 403 295 389 232 389H196V296H242C309 296 359 276 359 218C359 167 320 138 258 138C201 138 152 169 142 230H49C37 43 163 -15 304 -15C462 -15 563 63 563 191C563 346 385 361 258 361H212Z" glyph-name="three.tab" horiz-adv-x="620" /><glyph d="M119 96H148C228 96 331 107 331 201C331 277 262 312 181 312C109 312 24 272 28 170H86C95 194 115 213 147 213C179 213 196 199 196 176C196 142 169 136 131 136H110V75H136C174 75 203 64 203 34C203 6 181 -9 147 -9C117 -9 87 7 79 41H16C9 -76 92 -110 178 -110C278 -110 342 -62 342 15C342 111 226 117 148 117H119Z" glyph-name="threeinferior" horiz-adv-x="361" unicode="&#8323;" /><glyph d="M615 0V256L644 258L511 84L508 143H774V64H482V138L622 320H730V0ZM27 564C21 651 93 679 147 679C210 679 265 649 265 590C265 519 191 510 133 510H108V525H133C192 525 274 518 274 446C274 387 224 348 143 348C74 348 10 376 17 472H72C75 451 92 439 112 439C135 439 147 449 147 467C147 482 134 490 107 490H88V543H103C132 543 142 551 142 567C142 580 131 590 114 590C96 590 82 580 78 564ZM510 675H649L304 0H164Z" glyph-name="threequarters" horiz-adv-x="786" unicode="&#190;" /><glyph d="M119 599H148C228 599 331 610 331 704C331 780 262 815 181 815C109 815 24 775 28 673H86C95 697 115 716 147 716C179 716 196 702 196 679C196 645 169 639 131 639H110V578H136C174 578 203 567 203 537C203 509 181 494 147 494C117 494 87 510 79 544H16C9 427 92 393 178 393C278 393 342 441 342 518C342 614 226 620 148 620H119Z" glyph-name="threesuperior" horiz-adv-x="361" unicode="&#179;" /><glyph d="M97 572H135C129 609 136 637 165 637C215 637 234 572 318 572C399 572 440 649 403 763H364C369 727 364 697 335 697C285 697 267 763 182 763C101 763 59 690 97 572Z" glyph-name="tilde" horiz-adv-x="500" unicode="&#732;" /><glyph d="M337 858C286 858 268 920 183 920C101 920 59 852 97 741H135C129 776 136 802 166 802C216 802 235 741 319 741C401 741 442 813 405 920H366C371 886 366 858 337 858Z" glyph-name="tilde.cap" horiz-adv-x="500" /><glyph d="M491 320V640H427L572 320H637L782 610L729 640V320H835V690H709L578 425H659L542 690H385V320ZM250 320V690H107V320ZM10 690V592H347V690Z" glyph-name="trademark" horiz-adv-x="865" unicode="&#8482;" /><glyph d="M549 0V144H145L161 32C329 157 538 255 538 453C538 593 450 685 294 685C79 685 12 505 50 376H152C144 465 176 530 254 530C311 530 334 486 334 431C334 309 194 202 51 82V0Z" glyph-name="two" horiz-adv-x="589" unicode="2" /><glyph d="M38 289H136C134 356 157 401 215 401C256 401 271 370 271 332C271 240 154 156 42 73V0H477V129H133L148 29C284 117 469 191 469 351C469 465 391 540 254 540C63 540 6 392 38 289Z" glyph-name="two.small" horiz-adv-x="517" /><glyph d="M38 289H136C134 356 157 401 215 401C256 401 271 370 271 332C271 240 154 156 42 73V0H477V129H133L148 29C284 117 469 191 469 351C469 465 391 540 254 540C63 540 6 392 38 289Z" glyph-name="two.small_tab" horiz-adv-x="545" /><glyph d="M555 0V144H151L167 32C335 157 544 255 544 453C544 593 456 685 300 685C85 685 18 505 56 376H158C150 465 182 530 260 530C317 530 340 486 340 431C340 309 200 202 57 82V0Z" glyph-name="two.tab" horiz-adv-x="620" /><glyph d="M345 -100V-5H95L106 -79C206 -10 339 49 339 171C339 257 283 312 184 312C47 312 5 200 29 122H98C95 174 113 210 157 210C188 210 200 187 200 157C200 86 114 20 31 -47V-100Z" glyph-name="twoinferior" horiz-adv-x="368" unicode="&#8322;" /><glyph d="M345 403V498H95L106 424C206 493 339 552 339 674C339 760 283 815 184 815C47 815 5 703 29 625H98C95 677 113 713 157 713C188 713 200 690 200 660C200 589 114 523 31 456V403Z" glyph-name="twosuperior" horiz-adv-x="368" unicode="&#178;" /><glyph d="M352 276 339 349C339 195 321 136 276 136C245 136 227 156 227 263V490L45 479V175C45 60 78 -15 195 -15C355 -15 352 155 352 276ZM345 138 354 0H521V490L339 479V231Z" glyph-name="u" horiz-adv-x="571" unicode="u" /><glyph d="M219 570 210 617C210 523 200 491 176 491C161 491 152 502 152 563V694L29 687V506C29 438 49 394 122 394C224 394 219 498 219 570ZM214 486 221 403H333V694L210 687V545Z" glyph-name="u.superior" horiz-adv-x="365" /><glyph d="M352 276 339 349C339 195 321 136 276 136C245 136 227 156 227 263V490L45 479V175C45 60 78 -15 195 -15C355 -15 352 155 352 276ZM345 138 354 0H521V490L339 479V231ZM201 591 265 540 442 698 336 793Z" glyph-name="uacute" horiz-adv-x="571" unicode="&#250;" /><glyph d="M352 276 339 349C339 195 321 136 276 136C245 136 227 156 227 263V490L45 479V175C45 60 78 -15 195 -15C355 -15 352 155 352 276ZM345 138 354 0H521V490L339 479V231ZM290 558C410 558 459 644 449 762H396C387 722 370 680 290 680C209 680 193 722 184 762H131C121 644 170 558 290 558Z" glyph-name="ubreve" horiz-adv-x="571" unicode="&#365;" /><glyph d="M352 276 339 349C339 195 321 136 276 136C245 136 227 156 227 263V490L45 479V175C45 60 78 -15 195 -15C355 -15 352 155 352 276ZM345 138 354 0H521V490L339 479V231ZM106 589 157 542 290 652 423 542 474 589 338 774H242Z" glyph-name="ucircumflex" horiz-adv-x="571" unicode="&#251;" /><glyph d="M352 276 339 349C339 195 321 136 276 136C245 136 227 156 227 263V490L45 479V175C45 60 78 -15 195 -15C355 -15 352 155 352 276ZM345 138 354 0H521V490L339 479V231ZM136 594H268V740H136ZM326 594H458V740H326Z" glyph-name="udieresis" horiz-adv-x="571" unicode="&#252;" /><glyph d="M352 276 339 349C339 195 321 136 276 136C245 136 227 156 227 263V490L45 479V175C45 60 78 -15 195 -15C355 -15 352 155 352 276ZM345 138 354 0H521V490L339 479V231ZM141 698 318 540 382 591 247 793Z" glyph-name="ugrave" horiz-adv-x="571" unicode="&#249;" /><glyph d="M352 276 339 349C339 195 321 136 276 136C245 136 227 156 227 263V490L45 479V175C45 60 78 -15 195 -15C355 -15 352 155 352 276ZM345 138 354 0H521V490L339 479V231ZM116 581 201 540 328 744 211 792ZM316 581 401 540 535 730 423 786Z" glyph-name="uhungarumlaut" horiz-adv-x="571" unicode="&#369;" /><glyph d="M352 276 339 349C339 195 321 136 276 136C245 136 227 156 227 263V490L45 479V175C45 60 78 -15 195 -15C355 -15 352 155 352 276ZM345 138 354 0H521V490L339 479V231ZM132 735V623H448V735Z" glyph-name="umacron" horiz-adv-x="571" unicode="&#363;" /><glyph d="M0 -108V-250H560V-108Z" glyph-name="underscore" horiz-adv-x="560" unicode="_" /><glyph d="M384 -15C172 -15 35 121 35 343C35 567 190 700 384 700C579 700 734 567 734 343C734 121 579 -15 384 -15ZM387 60C546 60 649 174 649 343C649 506 546 625 387 625C225 625 125 510 125 343C125 182 211 60 387 60ZM239 533V156H373V530L301 440H391C425 440 446 425 446 396C446 365 426 350 390 350H302V260H422C521 260 580 314 580 402C580 484 519 533 430 533Z" glyph-name="uni2117" horiz-adv-x="769" unicode="&#8471;" /><glyph d="M324 -137C324 -188 355 -229 423 -229C502 -229 526 -176 521 -115H486C486 -131 478 -151 461 -151C438 -151 433 -132 433 -115C433 -56 464 0 515 0L466 30C410 6 324 -49 324 -137ZM352 276 339 349C339 195 321 136 276 136C245 136 227 156 227 263V490L45 479V175C45 60 78 -15 195 -15C355 -15 352 155 352 276ZM345 138 354 0H521V490L339 479V231Z" glyph-name="uogonek" horiz-adv-x="570.6308" unicode="&#371;" /><glyph d="M352 276 339 349C339 195 321 136 276 136C245 136 227 156 227 263V490L45 479V175C45 60 78 -15 195 -15C355 -15 352 155 352 276ZM345 138 354 0H521V490L339 479V231ZM150 693C150 620 207 562 290 562C376 562 431 620 431 693C431 766 376 823 290 823C209 823 150 766 150 693ZM336 679C336 652 316 631 291 631C263 631 244 652 244 679C244 707 263 728 291 728C316 728 336 707 336 679Z" glyph-name="uring" horiz-adv-x="571" unicode="&#367;" /><glyph d="M352 276 339 349C339 195 321 136 276 136C245 136 227 156 227 263V490L45 479V175C45 60 78 -15 195 -15C355 -15 352 155 352 276ZM345 138 354 0H521V490L339 479V231ZM147 572H185C179 609 186 637 215 637C265 637 284 572 368 572C449 572 490 649 453 763H414C419 727 414 697 385 697C335 697 317 763 232 763C151 763 109 690 147 572Z" glyph-name="utilde" horiz-adv-x="571" unicode="&#361;" /><glyph d="M-10 480 148 0H332L488 480H332L250 174H267L190 480Z" glyph-name="v" horiz-adv-x="478" unicode="v" /><glyph d="M-5 688 92 403H216L312 688H206L161 515H172L130 688Z" glyph-name="v.superior" horiz-adv-x="306" /><glyph d="M-10 480 128 0H283L360 247H351L427 0H582L718 480H572L515 222L445 480H322L255 222L191 480Z" glyph-name="w" horiz-adv-x="708" unicode="w" /><glyph d="M-6 688 79 403H184L227 541H221L264 403H369L452 688H354L324 546L285 688H202L165 546L130 688Z" glyph-name="w.superior" horiz-adv-x="447" /><glyph d="M-10 480 128 0H283L360 247H351L427 0H582L718 480H572L515 222L445 480H322L255 222L191 480ZM344 591 408 540 585 698 479 793Z" glyph-name="wacute" horiz-adv-x="708" unicode="&#7811;" /><glyph d="M-10 480 128 0H283L360 247H351L427 0H582L718 480H572L515 222L445 480H322L255 222L191 480ZM221 589 272 542 405 652 538 542 589 589 453 774H357Z" glyph-name="wcircumflex" horiz-adv-x="708" unicode="&#373;" /><glyph d="M-10 480 128 0H283L360 247H351L427 0H582L718 480H572L515 222L445 480H322L255 222L191 480ZM242 594H374V740H242ZM432 594H564V740H432Z" glyph-name="wdieresis" horiz-adv-x="708" unicode="&#7813;" /><glyph d="M-10 480 128 0H283L360 247H351L427 0H582L718 480H572L515 222L445 480H322L255 222L191 480ZM221 698 398 540 462 591 327 793Z" glyph-name="wgrave" horiz-adv-x="708" unicode="&#7809;" /><glyph d="M186 198 274 0H494L328 294L295 317L222 480H2L134 226ZM149 269 -5 0H144L223 176L312 198L481 480H336L236 277Z" glyph-name="x" horiz-adv-x="489" unicode="x" /><glyph d="M117 518 167 403H316L213 579L191 594L150 688H1L82 536ZM92 563 -2 403H98L142 504L203 518L308 688H211L151 568Z" glyph-name="x.superior" horiz-adv-x="314" /><glyph d="M8 -84C6 -114 -16 -250 127 -250C170 -250 234 -224 279 -107L503 480H344L241 136L182 -23C152 -105 138 -130 100 -130C62 -130 46 -108 46 -84ZM-15 480 190 -33 310 63 198 480Z" glyph-name="y" horiz-adv-x="493" unicode="y" /><glyph d="M7 359C5 342 -10 255 84 255C114 255 154 271 183 343L321 688H214L153 489L118 397C98 346 88 331 65 331C42 331 32 344 32 359ZM-9 688 119 382 201 443 135 688Z" glyph-name="y.superior" horiz-adv-x="316" /><glyph d="M8 -84C6 -114 -16 -250 127 -250C170 -250 234 -224 279 -107L503 480H344L241 136L182 -23C152 -105 138 -130 100 -130C62 -130 46 -108 46 -84ZM-15 480 190 -33 310 63 198 480ZM155 591 219 540 396 698 290 793Z" glyph-name="yacute" horiz-adv-x="493" unicode="&#253;" /><glyph d="M8 -84C6 -114 -16 -250 127 -250C170 -250 234 -224 279 -107L503 480H344L241 136L182 -23C152 -105 138 -130 100 -130C62 -130 46 -108 46 -84ZM-15 480 190 -33 310 63 198 480ZM84 589 135 542 268 652 401 542 452 589 316 774H220Z" glyph-name="ycircumflex" horiz-adv-x="493" unicode="&#375;" /><glyph d="M8 -84C6 -114 -16 -250 127 -250C170 -250 234 -224 279 -107L503 480H344L241 136L182 -23C152 -105 138 -130 100 -130C62 -130 46 -108 46 -84ZM-15 480 190 -33 310 63 198 480ZM109 594H241V740H109ZM299 594H431V740H299Z" glyph-name="ydieresis" horiz-adv-x="493" unicode="&#255;" /><glyph d="M399 246 234 253 2 675H229L367 396H345L475 675H618ZM231 291H409V0H231ZM545 198V98H92V198ZM228 348 235 248H92V348ZM545 348V248H402L410 348Z" glyph-name="yen" horiz-adv-x="620" unicode="&#165;" /><glyph d="M8 -84C6 -114 -16 -250 127 -250C170 -250 234 -224 279 -107L503 480H344L241 136L182 -23C152 -105 138 -130 100 -130C62 -130 46 -108 46 -84ZM-15 480 190 -33 310 63 198 480ZM141 698 318 540 382 591 247 793Z" glyph-name="ygrave" horiz-adv-x="493" unicode="&#7923;" /><glyph d="M30 95V0H424V128H126L155 31L421 359V480H36V339H356L306 438Z" glyph-name="z" horiz-adv-x="454" unicode="z" /><glyph d="M21 464V403H270V485H86L105 423L268 610V688H24V597H225L191 661Z" glyph-name="z.superior" horiz-adv-x="291" /><glyph d="M30 95V0H424V128H126L155 31L421 359V480H36V339H356L306 438ZM141 591 205 540 382 698 276 793Z" glyph-name="zacute" horiz-adv-x="454" unicode="&#378;" /><glyph d="M30 95V0H424V128H126L155 31L421 359V480H36V339H356L306 438ZM56 737 192 552H288L424 737L373 784L240 674L107 784Z" glyph-name="zcaron" horiz-adv-x="454" unicode="&#382;" /><glyph d="M30 95V0H424V128H126L155 31L421 359V480H36V339H356L306 438ZM150 594H332V740H150Z" glyph-name="zdotaccent" horiz-adv-x="454" unicode="&#380;" /><glyph d="M330 140C264 140 229 184 229 336C229 486 264 532 330 532C392 532 434 478 434 336C434 196 395 140 330 140ZM313 -15C485 -15 601 94 601 335C601 576 485 685 313 685C141 685 25 576 25 335C25 94 141 -15 313 -15Z" glyph-name="zero" horiz-adv-x="626" unicode="0" /><glyph d="M289 125C239 125 217 154 217 264C217 375 241 402 289 402C336 402 364 364 364 263C364 162 337 125 289 125ZM273 -13C425 -13 525 71 525 262C525 451 427 540 273 540C121 540 20 454 20 263C20 75 119 -13 273 -13Z" glyph-name="zero.small" horiz-adv-x="545" /><glyph d="M289 125C239 125 217 154 217 264C217 375 241 402 289 402C336 402 364 364 364 263C364 162 337 125 289 125ZM273 -13C425 -13 525 71 525 262C525 451 427 540 273 540C121 540 20 454 20 263C20 75 119 -13 273 -13Z" glyph-name="zero.small_tab" horiz-adv-x="545" /><glyph d="M327 140C261 140 226 184 226 336C226 486 261 532 327 532C389 532 431 478 431 336C431 196 392 140 327 140ZM310 -15C482 -15 598 94 598 335C598 576 482 685 310 685C138 685 22 576 22 335C22 94 138 -15 310 -15Z" glyph-name="zero.tab" horiz-adv-x="620" /><glyph d="M209 -7C171 -7 153 16 153 102C153 188 172 211 209 211C244 211 266 181 266 101C266 22 245 -7 209 -7ZM197 -109C306 -109 379 -45 379 100C379 245 307 312 197 312C88 312 15 247 15 101C15 -43 87 -109 197 -109Z" glyph-name="zeroinferior" horiz-adv-x="394" unicode="&#8320;" /><glyph d="M313 -15C485 -15 601 94 601 335C601 576 485 685 313 685C141 685 25 576 25 335C25 94 141 -15 313 -15ZM330 130C264 130 219 172 219 336C219 492 264 542 330 542C392 542 444 485 444 336C444 187 395 130 330 130ZM456 606 147 100 199 62 507 566Z" glyph-name="zeroslash" horiz-adv-x="626" /><glyph d="M375 472 147 100 199 62 426 432ZM289 125C239 125 217 154 217 264C217 375 241 402 289 402C336 402 364 364 364 263C364 162 337 125 289 125ZM273 -13C425 -13 525 71 525 262C525 451 427 540 273 540C121 540 20 454 20 263C20 75 119 -13 273 -13Z" glyph-name="zeroslash.small" horiz-adv-x="545" /><glyph d="M375 472 147 100 199 62 426 432ZM289 125C239 125 217 154 217 264C217 375 241 402 289 402C336 402 364 364 364 263C364 162 337 125 289 125ZM273 -13C425 -13 525 71 525 262C525 451 427 540 273 540C121 540 20 454 20 263C20 75 119 -13 273 -13Z" glyph-name="zeroslash.small_tab" horiz-adv-x="545" /><glyph d="M310 -15C482 -15 598 94 598 335C598 576 482 685 310 685C138 685 22 576 22 335C22 94 138 -15 310 -15ZM327 130C261 130 216 172 216 336C216 492 261 542 327 542C389 542 441 485 441 336C441 187 392 130 327 130ZM453 606 144 100 196 62 504 566Z" glyph-name="zeroslash.tab" horiz-adv-x="620" /><glyph d="M209 496C171 496 153 519 153 605C153 691 172 714 209 714C244 714 266 684 266 604C266 525 245 496 209 496ZM197 394C306 394 379 458 379 603C379 748 307 815 197 815C88 815 15 750 15 604C15 460 87 394 197 394Z" glyph-name="zerosuperior" horiz-adv-x="394" unicode="&#8304;" /></font>
</defs>
</svg>
