<?xml version="1.0" standalone="no"?><!DOCTYPE svg PUBLIC "-//W3C//DTD SVG 1.1//EN" "http://www.w3.org/Graphics/SVG/1.1/DTD/svg11.dtd" ><svg version="1.1" xmlns="http://www.w3.org/2000/svg"><defs><font horiz-adv-x="0" id="font"><font-face ascent="710" bbox="-38 -250 1067 997" cap-height="690" descent="-250" font-family="Faune" font-stretch="normal" font-style="normal" font-weight="400" units-per-em="1000" x-height="475" /><missing-glyph d="M440 0H376V690H440ZM107 630V690H427V630ZM107 0V60H427V0ZM124 0H60L376 690H440ZM124 0H60V690H124ZM124 690 440 0H376L60 690Z" horiz-adv-x="500" /><glyph d="M100 0 310 611H288L479 0H600L368 691H261L15 0ZM489 185V260H142V185Z" glyph-name="A" horiz-adv-x="620" unicode="A" /><glyph d="M96 0 263 455H249L408 0H519L324 525H222L15 0ZM423 138 420 202H128L126 138Z" glyph-name="A.small" horiz-adv-x="534" /><glyph d="M413 688 0 0H90L456 622V688ZM415 688V3H517V688ZM454 78V3H795V78ZM787 613V688H454V613ZM475 235V310H209L204 235ZM737 303V378H454V303Z" glyph-name="AE" horiz-adv-x="835" unicode="&#198;" /><glyph d="M97 0 349 444 366 523H315L13 0ZM398 172V236H158L156 172ZM340 523V3H689V67H380L439 6V520L380 458H682V523ZM379 294V229H633V294Z" glyph-name="AE.small" horiz-adv-x="722" /><glyph d="M413 688 0 0H90L456 622V688ZM415 688V3H517V688ZM454 78V3H795V78ZM787 613V688H454V613ZM475 235V310H209L204 235ZM737 303V378H454V303ZM495 757 521 730 714 808 660 875Z" glyph-name="AEacute" horiz-adv-x="835" unicode="&#508;" /><glyph d="M97 0 349 444 366 523H315L13 0ZM398 172V236H158L156 172ZM340 523V3H689V67H380L439 6V520L380 458H682V523ZM379 294V229H633V294ZM416 634 456 601 613 760 552 816Z" glyph-name="AEacute.small" horiz-adv-x="722" /><glyph d="M100 0 310 611H288L479 0H600L368 691H261L15 0ZM489 185V260H142V185ZM224 757 250 730 443 808 389 875Z" glyph-name="Aacute" horiz-adv-x="620" unicode="&#193;" /><glyph d="M96 0 263 455H249L408 0H519L324 525H222L15 0ZM423 138 420 202H128L126 138ZM200 634 240 601 397 760 336 816Z" glyph-name="Aacute.small" horiz-adv-x="534" /><glyph d="M100 0 310 611H288L479 0H600L368 691H261L15 0ZM489 185V260H142V185ZM171 876C166 809 205 735 318 735C430 735 469 809 464 876H428C423 845 399 803 318 803C234 803 212 845 207 876Z" glyph-name="Abreve" horiz-adv-x="620" unicode="&#258;" /><glyph d="M96 0 263 455H249L408 0H519L324 525H222L15 0ZM423 138 420 202H128L126 138ZM264 626C379 626 413 719 408 794H372C367 759 351 698 264 698C178 698 161 759 157 794H120C115 719 149 626 264 626Z" glyph-name="Abreve.small" horiz-adv-x="534" /><glyph d="M100 0 310 611H288L479 0H600L368 691H261L15 0ZM489 185V260H142V185ZM149 763 172 729 311 801 450 729 474 763 334 873H288Z" glyph-name="Acircumflex" horiz-adv-x="620" unicode="&#194;" /><glyph d="M96 0 263 455H249L408 0H519L324 525H222L15 0ZM423 138 420 202H128L126 138ZM102 632 136 600 265 726 393 600 427 632 291 803H238Z" glyph-name="Acircumflex.small" horiz-adv-x="534" /><glyph d="M100 0 310 611H288L479 0H600L368 691H261L15 0ZM489 185V260H142V185ZM184 750H277V844H184ZM358 750H451V844H358Z" glyph-name="Adieresis" horiz-adv-x="620" unicode="&#196;" /><glyph d="M96 0 263 455H249L408 0H519L324 525H222L15 0ZM423 138 420 202H128L126 138ZM131 666H224V760H131ZM305 666H398V760H305Z" glyph-name="Adieresis.small" horiz-adv-x="534" /><glyph d="M100 0 310 611H288L479 0H600L368 691H261L15 0ZM489 185V260H142V185ZM190 808 383 730 409 757 244 875Z" glyph-name="Agrave" horiz-adv-x="620" unicode="&#192;" /><glyph d="M96 0 263 455H249L408 0H519L324 525H222L15 0ZM423 138 420 202H128L126 138ZM141 760 298 601 338 634 202 816Z" glyph-name="Agrave.small" horiz-adv-x="534" /><glyph d="M100 0 310 611H288L479 0H600L368 691H261L15 0ZM489 185V260H142V185ZM174 838V776H450V838Z" glyph-name="Amacron" horiz-adv-x="620" unicode="&#256;" /><glyph d="M96 0 263 455H249L408 0H519L324 525H222L15 0ZM423 138 420 202H128L126 138ZM126 760V698H402V760Z" glyph-name="Amacron.small" horiz-adv-x="534" /><glyph d="M388 -133C388 -174 411 -207 465 -207C524 -207 545 -166 542 -115H519C519 -140 508 -162 484 -162C456 -162 450 -143 450 -124C450 -65 499 -14 549 0L510 19C449 -17 388 -64 388 -133ZM100 0 310 611H288L479 0H600L368 691H261L15 0ZM489 185V260H142V185Z" glyph-name="Aogonek" horiz-adv-x="620" unicode="&#260;" /><glyph d="M312 -133C312 -174 334 -207 388 -207C448 -207 468 -166 466 -115H442C442 -140 432 -162 407 -162C380 -162 374 -143 374 -124C374 -65 429 0 494 0L435 19C374 -17 312 -64 312 -133ZM96 0 263 455H249L408 0H519L324 525H222L15 0ZM423 138 420 202H128L126 138Z" glyph-name="Aogonek.small" horiz-adv-x="534" /><glyph d="M100 0 310 611H288L479 0H600L368 691H261L15 0ZM489 185V260H142V185ZM206 815C206 759 249 715 311 715C375 715 417 759 417 815C417 872 375 916 311 916C250 916 206 872 206 815ZM363 808C363 779 341 756 312 756C281 756 260 779 260 808C260 838 281 861 312 861C341 861 363 838 363 808Z" glyph-name="Aring" horiz-adv-x="620" unicode="&#197;" /><glyph d="M96 0 263 455H249L408 0H519L324 525H222L15 0ZM423 138 420 202H128L126 138ZM156 732C156 674 200 628 264 628C331 628 374 674 374 732C374 791 331 836 264 836C201 836 156 791 156 732ZM320 725C320 693 297 669 265 669C232 669 209 693 209 725C209 758 232 783 265 783C297 783 320 758 320 725Z" glyph-name="Aring.small" horiz-adv-x="534" /><glyph d="M100 0 310 611H288L479 0H600L368 691H261L15 0ZM489 185V260H142V185ZM207 750C207 694 250 650 312 650C376 650 418 694 418 750C418 807 376 851 312 851C251 851 207 807 207 750ZM364 743C364 714 342 691 313 691C282 691 261 714 261 743C261 773 282 796 313 796C342 796 364 773 364 743ZM209 879 235 852 428 930 374 997Z" glyph-name="Aringacute" horiz-adv-x="620" unicode="&#506;" /><glyph d="M96 0 263 455H249L408 0H519L324 525H222L15 0ZM423 138 420 202H128L126 138ZM161 686C161 628 205 582 269 582C336 582 379 628 379 686C379 745 336 790 269 790C206 790 161 745 161 686ZM325 679C325 647 302 623 270 623C237 623 214 647 214 679C214 712 237 737 270 737C302 737 325 712 325 679ZM173 845 199 818 392 896 338 963Z" glyph-name="Aringacute.small" horiz-adv-x="534" /><glyph d="M100 0 310 611H288L479 0H600L368 691H261L15 0ZM489 185V260H142V185ZM382 804C329 804 323 871 244 871C172 871 144 815 170 739H196C188 774 196 806 234 806C293 806 298 739 373 739C445 739 472 798 446 872H420C428 838 421 804 382 804Z" glyph-name="Atilde" horiz-adv-x="620" unicode="&#195;" /><glyph d="M96 0 263 455H249L408 0H519L324 525H222L15 0ZM423 138 420 202H128L126 138ZM129 631H154C143 674 151 714 191 714C253 714 252 632 330 632C400 632 428 698 400 784H374C385 741 378 701 338 701C283 701 283 783 199 783C129 783 100 719 129 631Z" glyph-name="Atilde.small" horiz-adv-x="534" /><glyph d="M80 690V0H183V683L130 615H274C361 615 424 590 424 502C424 411 346 391 268 391H130V319H299C387 319 456 289 456 198C456 103 386 75 309 75H141V0H332C454 0 558 54 558 188C558 323 446 362 300 362H183V349H261C384 349 526 373 526 516C526 644 427 690 291 690Z" glyph-name="B" horiz-adv-x="591" unicode="B" /><glyph d="M171 23V520L119 461H242C318 461 375 443 375 379C375 320 322 301 240 301H125V237H261C340 237 400 219 400 152C400 87 350 64 262 64H129ZM73 0H286C421 0 498 46 498 143C498 250 397 280 261 280H154V268H234C365 268 470 291 470 393C470 492 384 525 263 525H73Z" glyph-name="B.small" horiz-adv-x="528" /><glyph d="M40 339C40 100 170 -10 339 -10C524 -10 579 123 579 190H530C525 154 475 74 355 74C241 74 150 156 150 339C150 514 240 609 360 609C469 609 509 535 514 511H567C572 571 519 698 346 698C177 698 40 570 40 339Z" glyph-name="C" horiz-adv-x="614" unicode="C" /><glyph d="M40 258C40 80 141 -10 291 -10C453 -10 491 97 491 154H450C445 122 408 64 309 64C210 64 145 127 145 258C145 385 207 455 308 455C400 455 425 401 430 379H481C486 432 446 533 292 533C140 533 40 432 40 258Z" glyph-name="C.small" horiz-adv-x="517" /><glyph d="M40 339C40 100 170 -10 339 -10C524 -10 579 123 579 190H530C525 154 475 74 355 74C241 74 150 156 150 339C150 514 240 609 360 609C469 609 509 535 514 511H567C572 571 519 698 346 698C177 698 40 570 40 339ZM273 757 299 730 492 808 438 875Z" glyph-name="Cacute" horiz-adv-x="614" unicode="&#262;" /><glyph d="M40 258C40 80 141 -10 291 -10C453 -10 491 97 491 154H450C445 122 408 64 309 64C210 64 145 127 145 258C145 385 207 455 308 455C400 455 425 401 430 379H481C486 432 446 533 292 533C140 533 40 432 40 258ZM222 634 262 601 419 760 358 816Z" glyph-name="Cacute.small" horiz-adv-x="514" /><glyph d="M40 339C40 100 170 -10 339 -10C524 -10 579 123 579 190H530C525 154 475 74 355 74C241 74 150 156 150 339C150 514 240 609 360 609C469 609 509 535 514 511H567C572 571 519 698 346 698C177 698 40 570 40 339ZM185 839 325 729H371L510 839L487 873L348 801L209 873Z" glyph-name="Ccaron" horiz-adv-x="614" unicode="&#268;" /><glyph d="M40 258C40 80 141 -10 291 -10C453 -10 491 97 491 154H450C445 122 408 64 309 64C210 64 145 127 145 258C145 385 207 455 308 455C400 455 425 401 430 379H481C486 432 446 533 292 533C140 533 40 432 40 258ZM128 780 264 607H317L453 780L417 808L290 682L164 808Z" glyph-name="Ccaron.small" horiz-adv-x="514" /><glyph d="M40 339C40 100 170 -10 339 -10C524 -10 579 123 579 190H530C525 154 475 74 355 74C241 74 150 156 150 339C150 514 240 609 360 609C469 609 509 535 514 511H567C572 571 519 698 346 698C177 698 40 570 40 339ZM275 -115C270 -161 289 -199 349 -199C397 -199 432 -172 432 -119C432 -57 383 -33 320 -49L335 -54L343 0L312 4L292 -69L311 -79C346 -72 369 -83 369 -119C369 -144 355 -158 335 -158C308 -158 298 -144 299 -115Z" glyph-name="Ccedilla" horiz-adv-x="614" unicode="&#199;" /><glyph d="M40 258C40 80 141 -10 291 -10C453 -10 491 97 491 154H450C445 122 408 64 309 64C210 64 145 127 145 258C145 385 207 455 308 455C400 455 425 401 430 379H481C486 432 446 533 292 533C140 533 40 432 40 258ZM210 -115C205 -161 224 -199 284 -199C332 -199 367 -172 367 -119C367 -57 318 -33 255 -49L270 -54L278 0L247 4L227 -69L246 -79C281 -72 304 -83 304 -119C304 -144 290 -158 270 -158C243 -158 233 -144 234 -115Z" glyph-name="Ccedilla.small" horiz-adv-x="514" /><glyph d="M40 339C40 100 170 -10 339 -10C524 -10 579 123 579 190H530C525 154 475 74 355 74C241 74 150 156 150 339C150 514 240 609 360 609C469 609 509 535 514 511H567C572 571 519 698 346 698C177 698 40 570 40 339ZM177 763 200 729 339 801 478 729 502 763 362 873H316Z" glyph-name="Ccircumflex" horiz-adv-x="614" unicode="&#264;" /><glyph d="M40 258C40 80 141 -10 291 -10C453 -10 491 97 491 154H450C445 122 408 64 309 64C210 64 145 127 145 258C145 385 207 455 308 455C400 455 425 401 430 379H481C486 432 446 533 292 533C140 533 40 432 40 258ZM122 632 156 600 285 726 413 600 447 632 311 803H258Z" glyph-name="Ccircumflex.small" horiz-adv-x="514" /><glyph d="M40 339C40 100 170 -10 339 -10C524 -10 579 123 579 190H530C525 154 475 74 355 74C241 74 150 156 150 339C150 514 240 609 360 609C469 609 509 535 514 511H567C572 571 519 698 346 698C177 698 40 570 40 339ZM292 749H399V847H292Z" glyph-name="Cdotaccent" horiz-adv-x="614" unicode="&#266;" /><glyph d="M40 258C40 80 141 -10 291 -10C453 -10 491 97 491 154H450C445 122 408 64 309 64C210 64 145 127 145 258C145 385 207 455 308 455C400 455 425 401 430 379H481C486 432 446 533 292 533C140 533 40 432 40 258ZM237 662H344V760H237Z" glyph-name="Cdotaccent.small" horiz-adv-x="514" /><glyph d="M183 652 160 615H270C440 615 515 505 515 349C515 169 422 75 270 75H150L183 35ZM80 690V0H269C450 0 624 81 624 349C624 543 512 690 269 690Z" glyph-name="D" horiz-adv-x="664" unicode="D" /><glyph d="M171 492 150 458H240C382 458 438 378 438 267C438 130 364 67 245 67H140L171 31ZM73 525V0H241C404 0 543 64 543 267C543 415 451 525 237 525Z" glyph-name="D.small" horiz-adv-x="580" /><glyph d="M183 652 160 615H270C440 615 515 505 515 349C515 169 422 75 270 75H150L183 35ZM80 690V0H269C450 0 624 81 624 349C624 543 512 690 269 690ZM133 839 273 729H319L458 839L435 873L296 801L157 873Z" glyph-name="Dcaron" horiz-adv-x="664" unicode="&#270;" /><glyph d="M171 492 150 458H240C382 458 438 378 438 267C438 130 364 67 245 67H140L171 31ZM73 525V0H241C404 0 543 64 543 267C543 415 451 525 237 525ZM102 780 238 607H291L427 780L391 808L264 682L138 808Z" glyph-name="Dcaron.small" horiz-adv-x="575" /><glyph d="M10 383V333H344V383ZM183 652 160 615H270C440 615 515 505 515 349C515 169 422 75 270 75H150L183 35ZM80 690V0H269C450 0 624 81 624 349C624 543 512 690 269 690Z" glyph-name="Dcroat" horiz-adv-x="664" unicode="&#272;" /><glyph d="M10 288V238H278V288ZM171 492 150 458H240C382 458 438 378 438 267C438 130 364 67 245 67H140L171 31ZM73 525V0H241C404 0 543 64 543 267C543 415 451 525 237 525Z" glyph-name="Dcroat.small" horiz-adv-x="575" /><glyph d="M477 64H113L301 587ZM25 0H604V34L374 693H267L25 34Z" glyph-name="Delta" horiz-adv-x="629" unicode="&#8710;" /><glyph d="M80 688V3H183V688ZM433 325V400H119V325ZM119 78V3H490V78ZM483 613V688H119V613Z" glyph-name="E" horiz-adv-x="530" unicode="E" /><glyph d="M171 500 113 456H437V523H73V3H444V70H113L171 18ZM388 238V305H111V238Z" glyph-name="E.small" horiz-adv-x="477" /><glyph d="M80 688V3H183V688ZM433 325V400H119V325ZM119 78V3H490V78ZM483 613V688H119V613ZM188 757 214 730 407 808 353 875Z" glyph-name="Eacute" horiz-adv-x="530" unicode="&#201;" /><glyph d="M171 500 113 456H437V523H73V3H444V70H113L171 18ZM388 238V305H111V238ZM176 634 216 601 373 760 312 816Z" glyph-name="Eacute.small" horiz-adv-x="474" /><glyph d="M80 688V3H183V688ZM433 325V400H119V325ZM119 78V3H490V78ZM483 613V688H119V613ZM139 876C134 809 173 735 286 735C398 735 437 809 432 876H396C391 845 367 803 286 803C202 803 180 845 175 876Z" glyph-name="Ebreve" horiz-adv-x="530" unicode="&#276;" /><glyph d="M171 500 113 456H437V523H73V3H444V70H113L171 18ZM388 238V305H111V238ZM259 626C374 626 408 719 403 794H367C362 759 346 698 259 698C173 698 156 759 152 794H115C110 719 144 626 259 626Z" glyph-name="Ebreve.small" horiz-adv-x="474" /><glyph d="M80 688V3H183V688ZM433 325V400H119V325ZM119 78V3H490V78ZM483 613V688H119V613ZM128 839 268 729H314L453 839L430 873L291 801L152 873Z" glyph-name="Ecaron" horiz-adv-x="530" unicode="&#282;" /><glyph d="M171 500 113 456H437V523H73V3H444V70H113L171 18ZM388 238V305H111V238ZM98 780 234 607H287L423 780L387 808L260 682L134 808Z" glyph-name="Ecaron.small" horiz-adv-x="474" /><glyph d="M80 688V3H183V688ZM433 325V400H119V325ZM119 78V3H490V78ZM483 613V688H119V613ZM125 763 148 729 287 801 426 729 450 763 310 873H264Z" glyph-name="Ecircumflex" horiz-adv-x="530" unicode="&#202;" /><glyph d="M171 500 113 456H437V523H73V3H444V70H113L171 18ZM388 238V305H111V238ZM93 632 127 600 256 726 384 600 418 632 282 803H229Z" glyph-name="Ecircumflex.small" horiz-adv-x="474" /><glyph d="M80 688V3H183V688ZM433 325V400H119V325ZM119 78V3H490V78ZM483 613V688H119V613ZM154 750H247V844H154ZM328 750H421V844H328Z" glyph-name="Edieresis" horiz-adv-x="530" unicode="&#203;" /><glyph d="M171 500 113 456H437V523H73V3H444V70H113L171 18ZM388 238V305H111V238ZM126 666H219V760H126ZM300 666H393V760H300Z" glyph-name="Edieresis.small" horiz-adv-x="474" /><glyph d="M80 688V3H183V688ZM433 325V400H119V325ZM119 78V3H490V78ZM483 613V688H119V613ZM233 749H340V847H233Z" glyph-name="Edotaccent" horiz-adv-x="530" unicode="&#278;" /><glyph d="M171 500 113 456H437V523H73V3H444V70H113L171 18ZM388 238V305H111V238ZM204 662H311V760H204Z" glyph-name="Edotaccent.small" horiz-adv-x="474" /><glyph d="M80 688V3H183V688ZM433 325V400H119V325ZM119 78V3H490V78ZM483 613V688H119V613ZM161 808 354 730 380 757 215 875Z" glyph-name="Egrave" horiz-adv-x="530" unicode="&#200;" /><glyph d="M171 500 113 456H437V523H73V3H444V70H113L171 18ZM388 238V305H111V238ZM134 760 291 601 331 634 195 816Z" glyph-name="Egrave.small" horiz-adv-x="474" /><glyph d="M80 688V3H183V688ZM433 325V400H119V325ZM119 78V3H490V78ZM483 613V688H119V613ZM147 838V776H423V838Z" glyph-name="Emacron" horiz-adv-x="530" unicode="&#274;" /><glyph d="M171 500 113 456H437V523H73V3H444V70H113L171 18ZM388 238V305H111V238ZM117 760V698H393V760Z" glyph-name="Emacron.small" horiz-adv-x="474" /><glyph d="M426 -247C553 -247 595 -153 596 -5V690H514V182L181 690H80V0H161V528L514 -5C514 -121 484 -177 409 -177C342 -177 316 -134 314 -84H265C265 -166 302 -247 426 -247Z" glyph-name="Eng" horiz-adv-x="676" unicode="&#330;" /><glyph d="M382 -250C499 -250 532 -161 532 -52V525H454V152L168 525H76V0H154V394L454 6V-59C454 -135 434 -186 367 -186C309 -186 286 -150 285 -108H238C238 -185 275 -250 382 -250Z" glyph-name="Eng.small" horiz-adv-x="596" /><glyph d="M320 -125C320 -177 346 -207 400 -207C460 -207 481 -166 479 -115H455C455 -140 444 -162 419 -162C392 -162 382 -145 382 -116C382 -66 417 3 487 3L437 22C363 -11 320 -62 320 -125ZM80 688V3H183V688ZM433 325V400H119V325ZM119 78V3H490V78ZM483 613V688H119V613Z" glyph-name="Eogonek" horiz-adv-x="530" unicode="&#280;" /><glyph d="M278 -125C278 -177 304 -207 358 -207C418 -207 439 -166 437 -115H413C413 -140 402 -162 377 -162C350 -162 340 -145 340 -116C340 -66 379 3 437 3L386 22C329 -12 278 -62 278 -125ZM171 500 113 456H437V523H73V3H444V70H113L171 18ZM388 238V305H111V238Z" glyph-name="Eogonek.small" horiz-adv-x="474" /><glyph d="M10 383V333H344V383ZM183 652 160 615H270C440 615 515 505 515 349C515 169 422 75 270 75H150L183 35ZM80 690V0H269C450 0 624 81 624 349C624 543 512 690 269 690Z" glyph-name="Eth" horiz-adv-x="664" unicode="&#208;" /><glyph d="M10 288V238H278V288ZM171 492 150 458H240C382 458 438 378 438 267C438 130 364 67 245 67H140L171 31ZM73 525V0H241C404 0 543 64 543 267C543 415 451 525 237 525Z" glyph-name="Eth.small" horiz-adv-x="575" /><glyph d="M408 607C460 607 500 586 529 561L565 602C539 637 482 680 394 680C236 680 119 563 119 346C119 340 119 306 119 301C124 91 228 -10 385 -10C479 -10 538 34 568 75L539 113C514 89 470 62 403 62C294 62 231 138 226 279C226 285 226 356 226 363C226 516 297 607 408 607ZM464 435H58L44 378H450ZM438 291H35L21 234H424Z" glyph-name="Euro" horiz-adv-x="585" unicode="&#8364;" /><glyph d="M80 688V0H183V688ZM415 312V387H119V312ZM480 613V688H119V613Z" glyph-name="F" horiz-adv-x="485" unicode="F" /><glyph d="M73 523V0H171V515L113 456H435V523ZM111 297V230H374V297Z" glyph-name="F.small" horiz-adv-x="440" /><glyph d="M73 523V0H171V515L113 456H435V523ZM111 297V230H374V297ZM514 525V0H612V525Z" glyph-name="FI.small" horiz-adv-x="685" /><glyph d="M73 523V0H171V515L113 456H435V523ZM111 297V230H374V297ZM509 525V3H873V72H549L607 6V525Z" glyph-name="FL.small" horiz-adv-x="880" /><glyph d="M40 342C40 111 165 -10 355 -10C502 -10 567 67 600 123V343H391V268H524L507 283V137C495 116 461 70 363 70C235 70 150 164 150 336C150 517 249 609 368 609C481 609 524 535 529 511H582C588 574 532 698 356 698C189 698 40 577 40 342Z" glyph-name="G" horiz-adv-x="645" unicode="G" /><glyph d="M38 256C38 85 135 -10 301 -10C424 -10 485 47 513 100V262H331V198H446L434 210V108C424 95 390 59 310 59C206 59 143 130 143 251C143 378 216 455 314 455C407 455 435 402 441 380H491C497 434 454 533 297 533C150 533 38 436 38 256Z" glyph-name="G.small" horiz-adv-x="571" /><glyph d="M40 342C40 111 165 -10 355 -10C502 -10 567 67 600 123V343H391V268H524L507 283V137C495 116 461 70 363 70C235 70 150 164 150 336C150 517 249 609 368 609C481 609 524 535 529 511H582C588 574 532 698 356 698C189 698 40 577 40 342ZM202 876C197 809 236 735 349 735C461 735 500 809 495 876H459C454 845 430 803 349 803C265 803 243 845 238 876Z" glyph-name="Gbreve" horiz-adv-x="645" unicode="&#286;" /><glyph d="M38 256C38 85 135 -10 301 -10C424 -10 485 47 513 100V262H331V198H446L434 210V108C424 95 390 59 310 59C206 59 143 130 143 251C143 378 216 455 314 455C407 455 435 402 441 380H491C497 434 454 533 297 533C150 533 38 436 38 256ZM290 626C405 626 439 719 434 794H398C393 759 377 698 290 698C204 698 187 759 183 794H146C141 719 175 626 290 626Z" glyph-name="Gbreve.small" horiz-adv-x="571" /><glyph d="M40 342C40 111 165 -10 355 -10C502 -10 567 67 600 123V343H391V268H524L507 283V137C495 116 461 70 363 70C235 70 150 164 150 336C150 517 249 609 368 609C481 609 524 535 529 511H582C588 574 532 698 356 698C189 698 40 577 40 342ZM188 763 211 729 350 801 489 729 513 763 373 873H327Z" glyph-name="Gcircumflex" horiz-adv-x="645" unicode="&#284;" /><glyph d="M38 256C38 85 135 -10 301 -10C424 -10 485 47 513 100V262H331V198H446L434 210V108C424 95 390 59 310 59C206 59 143 130 143 251C143 378 216 455 314 455C407 455 435 402 441 380H491C497 434 454 533 297 533C150 533 38 436 38 256ZM126 632 160 600 289 726 417 600 451 632 315 803H262Z" glyph-name="Gcircumflex.small" horiz-adv-x="571" /><glyph d="M40 342C40 111 165 -10 355 -10C502 -10 567 67 600 123V343H391V268H524L507 283V137C495 116 461 70 363 70C235 70 150 164 150 336C150 517 249 609 368 609C481 609 524 535 529 511H582C588 574 532 698 356 698C189 698 40 577 40 342ZM282 -218 331 -229 406 -55H328Z" glyph-name="Gcommaaccent" horiz-adv-x="645" unicode="&#290;" /><glyph d="M38 256C38 85 135 -10 301 -10C424 -10 485 47 513 100V262H331V198H446L434 210V108C424 95 390 59 310 59C206 59 143 130 143 251C143 378 216 455 314 455C407 455 435 402 441 380H491C497 434 454 533 297 533C150 533 38 436 38 256ZM218 -218 267 -229 342 -55H264Z" glyph-name="Gcommaaccent.small" horiz-adv-x="571" /><glyph d="M40 342C40 111 165 -10 355 -10C502 -10 567 67 600 123V343H391V268H524L507 283V137C495 116 461 70 363 70C235 70 150 164 150 336C150 517 249 609 368 609C481 609 524 535 529 511H582C588 574 532 698 356 698C189 698 40 577 40 342ZM297 749H404V847H297Z" glyph-name="Gdotaccent" horiz-adv-x="645" unicode="&#288;" /><glyph d="M38 256C38 85 135 -10 301 -10C424 -10 485 47 513 100V262H331V198H446L434 210V108C424 95 390 59 310 59C206 59 143 130 143 251C143 378 216 455 314 455C407 455 435 402 441 380H491C497 434 454 533 297 533C150 533 38 436 38 256ZM243 662H350V760H243Z" glyph-name="Gdotaccent.small" horiz-adv-x="571" /><glyph d="M80 690V0H183V690ZM565 324V399H119V324ZM500 690V0H603V690Z" glyph-name="H" horiz-adv-x="683" unicode="H" /><glyph d="M73 525V0H171V525ZM494 240V307H112V240ZM430 525V0H528V525Z" glyph-name="H.small" horiz-adv-x="600" /><glyph d="M673 541V591H10V541ZM80 690V0H183V690ZM565 324V399H119V324ZM500 690V0H603V690Z" glyph-name="Hbar" horiz-adv-x="683" unicode="&#294;" /><glyph d="M20 456V406H575V456ZM73 525V0H171V525ZM494 240V307H112V240ZM430 525V0H528V525Z" glyph-name="Hbar.small" horiz-adv-x="595" /><glyph d="M80 690V0H183V690ZM565 324V399H119V324ZM500 690V0H603V690ZM179 763 202 729 341 801 480 729 504 763 364 873H318Z" glyph-name="Hcircumflex" horiz-adv-x="683" unicode="&#292;" /><glyph d="M73 525V0H171V525ZM494 240V307H112V240ZM430 525V0H528V525ZM135 632 169 600 298 726 426 600 460 632 324 803H271Z" glyph-name="Hcircumflex.small" horiz-adv-x="595" /><glyph d="M85 690V0H188V690Z" glyph-name="I" horiz-adv-x="273" unicode="I" /><glyph d="M78 525V0H176V525Z" glyph-name="I.small" horiz-adv-x="254" /><glyph d="M85 690V0H188V690ZM289 180C289 81 326 -10 463 -10C600 -10 642 98 642 242V690H540V244C540 140 518 75 438 75C367 75 342 128 339 180Z" glyph-name="IJ" horiz-adv-x="712" unicode="&#306;" /><glyph d="M78 525V0H176V525ZM268 145C268 64 299 -10 422 -10C543 -10 582 74 582 184V525H484V192C484 116 465 64 398 64C340 64 313 102 311 145Z" glyph-name="IJ.small" horiz-adv-x="644" /><glyph d="M85 690V0H188V690ZM51 757 77 730 270 808 216 875Z" glyph-name="Iacute" horiz-adv-x="273" unicode="&#205;" /><glyph d="M78 525V0H176V525ZM47 634 87 601 244 760 183 816Z" glyph-name="Iacute.small" horiz-adv-x="249" /><glyph d="M85 690V0H188V690ZM-10 876C-15 809 24 735 137 735C249 735 288 809 283 876H247C242 845 218 803 137 803C53 803 31 845 26 876Z" glyph-name="Ibreve" horiz-adv-x="273" unicode="&#300;" /><glyph d="M78 525V0H176V525ZM124 626C239 626 273 719 268 794H232C227 759 211 698 124 698C38 698 21 759 17 794H-20C-25 719 9 626 124 626Z" glyph-name="Ibreve.small" horiz-adv-x="249" /><glyph d="M137 806 244 730 269 759 159 873H114L4 759L29 730ZM85 690V0H188V690Z" glyph-name="Icircumflex" horiz-adv-x="273" unicode="&#206;" /><glyph d="M78 525V0H176V525ZM-38 632 -4 600 125 726 253 600 287 632 151 803H98Z" glyph-name="Icircumflex.small" horiz-adv-x="249" /><glyph d="M85 690V0H188V690ZM3 750H96V844H3ZM177 750H270V844H177Z" glyph-name="Idieresis" horiz-adv-x="273" unicode="&#207;" /><glyph d="M78 525V0H176V525ZM-9 666H84V760H-9ZM165 666H258V760H165Z" glyph-name="Idieresis.small" horiz-adv-x="249" /><glyph d="M85 690V0H188V690ZM83 749H190V847H83Z" glyph-name="Idotaccent" horiz-adv-x="273" unicode="&#304;" /><glyph d="M78 525V0H176V525ZM73 662H180V760H73Z" glyph-name="Idotaccent.small" horiz-adv-x="254" /><glyph d="M85 690V0H188V690ZM3 808 196 730 222 757 57 875Z" glyph-name="Igrave" horiz-adv-x="273" unicode="&#204;" /><glyph d="M78 525V0H176V525ZM9 760 166 601 206 634 70 816Z" glyph-name="Igrave.small" horiz-adv-x="249" /><glyph d="M24 838V776H249V838ZM85 690V0H188V690Z" glyph-name="Imacron" horiz-adv-x="273" unicode="&#298;" /><glyph d="M78 525V0H176V525ZM-14 760V698H262V760Z" glyph-name="Imacron.small" horiz-adv-x="249" /><glyph d="M56 -124C56 -177 84 -207 138 -207C197 -207 218 -166 216 -115H192C192 -140 181 -162 157 -162C129 -162 118 -146 118 -115C118 -68 144 -18 187 0L148 19C108 -13 56 -63 56 -124ZM85 690V0H188V690Z" glyph-name="Iogonek" horiz-adv-x="273" unicode="&#302;" /><glyph d="M44 -124C44 -177 72 -207 126 -207C185 -207 206 -166 204 -115H180C180 -140 169 -162 145 -162C117 -162 106 -146 106 -115C106 -68 132 -18 175 0L137 19C97 -13 44 -63 44 -124ZM78 525V0H176V525Z" glyph-name="Iogonek.small" horiz-adv-x="249" /><glyph d="M85 690V0H188V690ZM214 804C161 804 155 871 76 871C4 871 -24 815 2 739H28C20 774 28 806 66 806C125 806 130 739 205 739C277 739 304 798 278 872H252C260 838 253 804 214 804Z" glyph-name="Itilde" horiz-adv-x="273" unicode="&#296;" /><glyph d="M78 525V0H176V525ZM-11 631H14C3 674 11 714 51 714C113 714 112 632 190 632C260 632 288 698 260 784H234C245 741 238 701 198 701C143 701 143 783 59 783C-11 783 -40 719 -11 631Z" glyph-name="Itilde.small" horiz-adv-x="249" /><glyph d="M15 180C15 81 52 -10 189 -10C326 -10 368 98 368 242V690H266V244C266 140 244 75 164 75C93 75 68 128 65 180Z" glyph-name="J" horiz-adv-x="438" unicode="J" /><glyph d="M14 145C14 64 45 -10 168 -10C289 -10 328 74 328 184V525H230V192C230 116 211 64 144 64C86 64 59 102 57 145Z" glyph-name="J.small" horiz-adv-x="393" /><glyph d="M313 806 420 730 445 759 335 873H290L180 759L205 730ZM15 180C15 81 52 -10 189 -10C326 -10 368 98 368 242V690H266V244C266 140 244 75 164 75C93 75 68 128 65 180Z" glyph-name="Jcircumflex" horiz-adv-x="438" unicode="&#308;" /><glyph d="M14 145C14 64 45 -10 168 -10C289 -10 328 74 328 184V525H230V192C230 116 211 64 144 64C86 64 59 102 57 145ZM108 632 142 600 271 726 399 600 433 632 297 803H244Z" glyph-name="Jcircumflex.small" horiz-adv-x="390" /><glyph d="M81 0H184V690H81ZM165 239 560 690H466L165 345ZM210 377 465 0H593L283 451Z" glyph-name="K" horiz-adv-x="606" unicode="K" /><glyph d="M73 525V0H171V525ZM145 255 149 170 501 525H409ZM191 283 407 0H530L258 350Z" glyph-name="K.small" horiz-adv-x="548" /><glyph d="M81 0H184V690H81ZM165 239 560 690H466L165 345ZM210 377 465 0H593L283 451ZM233 -218 282 -229 357 -55H279Z" glyph-name="Kcommaaccent" horiz-adv-x="606" unicode="&#310;" /><glyph d="M73 525V0H171V525ZM145 255 149 170 501 525H409ZM191 283 407 0H530L258 350ZM197 -218 246 -229 321 -55H243Z" glyph-name="Kcommaaccent.small" horiz-adv-x="543" /><glyph d="M80 690V3H183V690ZM119 80V3H495V80Z" glyph-name="L" horiz-adv-x="505" unicode="L" /><glyph d="M73 525V3H437V72H113L171 6V525Z" glyph-name="L.small" horiz-adv-x="447" /><glyph d="M80 690V3H183V690ZM119 80V3H495V80ZM101 757 127 730 320 808 266 875Z" glyph-name="Lacute" horiz-adv-x="505" unicode="&#313;" /><glyph d="M73 525V3H437V72H113L171 6V525ZM92 634 132 601 289 760 228 816Z" glyph-name="Lacute.small" horiz-adv-x="444" /><glyph d="M80 690V3H183V690ZM119 80V3H495V80ZM308 501H364L426 700H346Z" glyph-name="Lcaron" horiz-adv-x="505" unicode="&#317;" /><glyph d="M71 525V3H435V72H111L169 6V525ZM279 326H335L397 525H317Z" glyph-name="Lcaron.small" horiz-adv-x="443" /><glyph d="M80 690V3H183V690ZM119 80V3H495V80ZM223 -218 272 -229 347 -55H269Z" glyph-name="Lcommaaccent" horiz-adv-x="505" unicode="&#315;" /><glyph d="M73 525V3H437V72H113L171 6V525ZM189 -218 238 -229 313 -55H235Z" glyph-name="Lcommaaccent.small" horiz-adv-x="444" /><glyph d="M80 690V3H183V690ZM119 80V3H495V80ZM326 319H433V417H326Z" glyph-name="Ldot" horiz-adv-x="505" unicode="&#319;" /><glyph d="M266 246H365V345H266ZM73 525V3H437V72H113L171 6V525Z" glyph-name="Ldot.small" horiz-adv-x="454" /><glyph d="M15 176 325 387V465L15 254ZM80 690V3H183V690ZM119 80V3H495V80Z" glyph-name="Lslash" horiz-adv-x="505" unicode="&#321;" /><glyph d="M15 135 283 323V400L15 212ZM73 525V3H437V72H113L171 6V525Z" glyph-name="Lslash.small" horiz-adv-x="444" /><glyph d="M153 0 178 648H121L380 12H440L691 628L637 648L662 0H750L724 693H636L390 94H449L205 693H96L70 0Z" glyph-name="M" horiz-adv-x="820" unicode="M" /><glyph d="M86 525 63 0H136L159 487L116 486L331 9H380L596 465L551 487L574 0H651L628 525H545L334 80H394L197 525Z" glyph-name="M.small" horiz-adv-x="713" /><glyph d="M87 638 513 -5H596V690H514V-2L579 84L181 690H80V0H161V689Z" glyph-name="N" horiz-adv-x="676" unicode="N" /><glyph d="M73 525V0H150V523L85 475L455 0H529V525H451V27L508 81L164 525Z" glyph-name="N.small" horiz-adv-x="601" /><glyph d="M87 638 513 -5H596V690H514V-2L579 84L181 690H80V0H161V689ZM249 757 275 730 468 808 414 875Z" glyph-name="Nacute" horiz-adv-x="676" unicode="&#323;" /><glyph d="M73 525V0H150V523L85 475L455 0H529V525H451V27L508 81L164 525ZM244 634 284 601 441 760 380 816Z" glyph-name="Nacute.small" horiz-adv-x="596" /><glyph d="M87 638 513 -5H596V690H514V-2L579 84L181 690H80V0H161V689ZM191 839 331 729H377L516 839L493 873L354 801L215 873Z" glyph-name="Ncaron" horiz-adv-x="676" unicode="&#327;" /><glyph d="M73 525V0H150V523L85 475L455 0H529V525H451V27L508 81L164 525ZM147 780 283 607H336L472 780L436 808L309 682L183 808Z" glyph-name="Ncaron.small" horiz-adv-x="596" /><glyph d="M87 638 513 -5H596V690H514V-2L579 84L181 690H80V0H161V689ZM257 -218 306 -229 381 -55H303Z" glyph-name="Ncommaaccent" horiz-adv-x="676" unicode="&#325;" /><glyph d="M73 525V0H150V523L85 475L455 0H529V525H451V27L508 81L164 525ZM217 -218 266 -229 341 -55H263Z" glyph-name="Ncommaaccent.small" horiz-adv-x="596" /><glyph d="M87 638 513 -5H596V690H514V-2L579 84L181 690H80V0H161V689ZM435 804C382 804 376 871 297 871C225 871 197 815 223 739H249C241 774 249 806 287 806C346 806 351 739 426 739C498 739 525 798 499 872H473C481 838 474 804 435 804Z" glyph-name="Ntilde" horiz-adv-x="676" unicode="&#209;" /><glyph d="M73 525V0H150V523L85 475L455 0H529V525H451V27L508 81L164 525ZM164 631H189C178 674 186 714 226 714C288 714 287 632 365 632C435 632 463 698 435 784H409C420 741 413 701 373 701C318 701 318 783 234 783C164 783 135 719 164 631Z" glyph-name="Ntilde.small" horiz-adv-x="596" /><glyph d="M40 344C40 103 182 -10 352 -10C542 -10 660 129 660 353C660 591 510 698 352 698C167 698 40 563 40 344ZM568 349C568 170 478 75 363 75C255 75 150 156 150 344C150 509 239 607 363 607C468 607 568 522 568 349Z" glyph-name="O" horiz-adv-x="700" unicode="O" /><glyph d="M38 261C38 75 159 -10 301 -10C456 -10 560 90 560 266C560 451 429 533 301 533C149 533 38 432 38 261ZM476 265C476 127 396 64 309 64C228 64 143 119 143 262C143 386 215 453 310 453C392 453 476 393 476 265Z" glyph-name="O.small" horiz-adv-x="598" /><glyph d="M40 344C40 103 174 -10 336 -10C509 -10 609 141 609 353C609 587 484 698 336 698C161 698 40 563 40 344ZM541 349C541 164 458 75 344 75C245 75 149 156 149 344C149 508 229 606 344 606C450 606 541 521 541 349ZM543 688V3H635V688ZM865 325V400H572V325ZM572 78V3H923V78ZM915 613V688H572V613Z" glyph-name="OE" horiz-adv-x="963" unicode="&#338;" /><glyph d="M38 261C38 78 151 -10 288 -10C447 -10 520 98 520 269C520 449 427 533 289 533C139 533 38 427 38 261ZM450 265C450 129 383 64 297 64C214 64 143 124 143 261C143 380 202 452 299 452C380 452 450 391 450 265ZM465 523V3H789V67H473L532 18V515L473 458H782V523ZM472 305V240H734V305Z" glyph-name="OE.small" horiz-adv-x="820" /><glyph d="M40 344C40 103 182 -10 352 -10C542 -10 660 129 660 353C660 591 510 698 352 698C167 698 40 563 40 344ZM568 349C568 170 478 75 363 75C255 75 150 156 150 344C150 509 239 607 363 607C468 607 568 522 568 349ZM263 757 289 730 482 808 428 875Z" glyph-name="Oacute" horiz-adv-x="700" unicode="&#211;" /><glyph d="M38 261C38 75 159 -10 301 -10C456 -10 560 90 560 266C560 451 429 533 301 533C149 533 38 432 38 261ZM476 265C476 127 396 64 309 64C228 64 143 119 143 262C143 386 215 453 310 453C392 453 476 393 476 265ZM226 634 266 601 423 760 362 816Z" glyph-name="Oacute.small" horiz-adv-x="597" /><glyph d="M40 344C40 103 182 -10 352 -10C542 -10 660 129 660 353C660 591 510 698 352 698C167 698 40 563 40 344ZM568 349C568 170 478 75 363 75C255 75 150 156 150 344C150 509 239 607 363 607C468 607 568 522 568 349ZM204 876C199 809 238 735 351 735C463 735 502 809 497 876H461C456 845 432 803 351 803C267 803 245 845 240 876Z" glyph-name="Obreve" horiz-adv-x="700" unicode="&#334;" /><glyph d="M38 262C38 76 159 -9 301 -9C456 -9 560 91 560 267C560 452 429 534 301 534C149 534 38 433 38 262ZM476 266C476 128 396 65 309 65C228 65 143 120 143 263C143 387 215 454 310 454C392 454 476 394 476 266ZM298 626C413 626 447 719 442 794H406C401 759 385 698 298 698C212 698 195 759 191 794H154C149 719 183 626 298 626Z" glyph-name="Obreve.small" horiz-adv-x="597" /><glyph d="M40 344C40 103 182 -10 352 -10C542 -10 660 129 660 353C660 591 510 698 352 698C167 698 40 563 40 344ZM568 349C568 170 478 75 363 75C255 75 150 156 150 344C150 509 239 607 363 607C468 607 568 522 568 349ZM190 763 213 729 352 801 491 729 515 763 375 873H329Z" glyph-name="Ocircumflex" horiz-adv-x="700" unicode="&#212;" /><glyph d="M38 261C38 75 159 -10 301 -10C456 -10 560 90 560 266C560 451 429 533 301 533C149 533 38 432 38 261ZM476 265C476 127 396 64 309 64C228 64 143 119 143 262C143 386 215 453 310 453C392 453 476 393 476 265ZM136 632 170 600 299 726 427 600 461 632 325 803H272Z" glyph-name="Ocircumflex.small" horiz-adv-x="597" /><glyph d="M40 344C40 103 182 -10 352 -10C542 -10 660 129 660 353C660 591 510 698 352 698C167 698 40 563 40 344ZM568 349C568 170 478 75 363 75C255 75 150 156 150 344C150 509 239 607 363 607C468 607 568 522 568 349ZM216 750H309V844H216ZM390 750H483V844H390Z" glyph-name="Odieresis" horiz-adv-x="700" unicode="&#214;" /><glyph d="M38 261C38 75 159 -10 301 -10C456 -10 560 90 560 266C560 451 429 533 301 533C149 533 38 432 38 261ZM476 265C476 127 396 64 309 64C228 64 143 119 143 262C143 386 215 453 310 453C392 453 476 393 476 265ZM166 666H259V760H166ZM340 666H433V760H340Z" glyph-name="Odieresis.small" horiz-adv-x="597" /><glyph d="M40 344C40 103 182 -10 352 -10C542 -10 660 129 660 353C660 591 510 698 352 698C167 698 40 563 40 344ZM568 349C568 170 478 75 363 75C255 75 150 156 150 344C150 509 239 607 363 607C468 607 568 522 568 349ZM233 808 426 730 452 757 287 875Z" glyph-name="Ograve" horiz-adv-x="700" unicode="&#210;" /><glyph d="M38 261C38 75 159 -10 301 -10C456 -10 560 90 560 266C560 451 429 533 301 533C149 533 38 432 38 261ZM476 265C476 127 396 64 309 64C228 64 143 119 143 262C143 386 215 453 310 453C392 453 476 393 476 265ZM164 760 321 601 361 634 225 816Z" glyph-name="Ograve.small" horiz-adv-x="597" /><glyph d="M40 344C40 103 182 -10 352 -10C542 -10 660 129 660 353C660 591 510 698 352 698C167 698 40 563 40 344ZM568 349C568 170 478 75 363 75C255 75 150 156 150 344C150 509 239 607 363 607C468 607 568 522 568 349ZM237 752 272 717 408 826 365 872ZM397 752 432 717 568 826 525 872Z" glyph-name="Ohungarumlaut" horiz-adv-x="700" unicode="&#336;" /><glyph d="M38 261C38 75 159 -10 301 -10C456 -10 560 90 560 266C560 451 429 533 301 533C149 533 38 432 38 261ZM476 265C476 127 396 64 309 64C228 64 143 119 143 262C143 386 215 453 310 453C392 453 476 393 476 265ZM174 627 222 604 321 787 257 813ZM344 627 392 604 494 780 433 810Z" glyph-name="Ohungarumlaut.small" horiz-adv-x="597" /><glyph d="M40 344C40 103 182 -10 352 -10C542 -10 660 129 660 353C660 591 510 698 352 698C167 698 40 563 40 344ZM568 349C568 170 478 75 363 75C255 75 150 156 150 344C150 509 239 607 363 607C468 607 568 522 568 349ZM217 838V776H493V838Z" glyph-name="Omacron" horiz-adv-x="700" unicode="&#332;" /><glyph d="M38 261C38 75 159 -10 301 -10C456 -10 560 90 560 266C560 451 429 533 301 533C149 533 38 432 38 261ZM476 265C476 127 396 64 309 64C228 64 143 119 143 262C143 386 215 453 310 453C392 453 476 393 476 265ZM160 760V698H436V760Z" glyph-name="Omacron.small" horiz-adv-x="597" /><glyph d="M318 107C315 108 157 167 157 359C157 500 230 607 375 607C523 607 593 490 593 359C593 167 436 108 432 107V0H676V74H490V83C520 92 693 139 693 376C693 557 582 698 369 698C164 698 45 557 45 376C45 138 222 92 254 83V74H60V0H318Z" glyph-name="Omega" horiz-adv-x="738" unicode="&#8486;" /><glyph d="M581 695 40 -8H122L661 695ZM40 344C40 103 182 -10 352 -10C542 -10 660 129 660 353C660 591 510 698 352 698C167 698 40 563 40 344ZM568 349C568 170 478 75 363 75C255 75 150 156 150 344C150 509 239 607 363 607C468 607 568 522 568 349Z" glyph-name="Oslash" horiz-adv-x="700" unicode="&#216;" /><glyph d="M491 525 35 -8H108L562 525ZM38 261C38 75 159 -10 301 -10C456 -10 560 90 560 266C560 451 429 533 301 533C149 533 38 432 38 261ZM476 265C476 127 396 64 309 64C228 64 143 119 143 262C143 386 215 453 310 453C392 453 476 393 476 265Z" glyph-name="Oslash.small" horiz-adv-x="597" /><glyph d="M581 695 40 -8H122L661 695ZM40 344C40 103 182 -10 352 -10C542 -10 660 129 660 353C660 591 510 698 352 698C167 698 40 563 40 344ZM568 349C568 170 478 75 363 75C255 75 150 156 150 344C150 509 239 607 363 607C468 607 568 522 568 349ZM262 757 288 730 481 808 427 875Z" glyph-name="Oslashacute" horiz-adv-x="700" unicode="&#510;" /><glyph d="M491 525 35 -8H108L562 525ZM38 261C38 75 159 -10 301 -10C456 -10 560 90 560 266C560 451 429 533 301 533C149 533 38 432 38 261ZM476 265C476 127 396 64 309 64C228 64 143 119 143 262C143 386 215 453 310 453C392 453 476 393 476 265ZM230 634 270 601 427 760 366 816Z" glyph-name="Oslashacute.small" horiz-adv-x="597" /><glyph d="M40 344C40 103 182 -10 352 -10C542 -10 660 129 660 353C660 591 510 698 352 698C167 698 40 563 40 344ZM568 349C568 170 478 75 363 75C255 75 150 156 150 344C150 509 239 607 363 607C468 607 568 522 568 349ZM429 804C376 804 370 871 291 871C219 871 191 815 217 739H243C235 774 243 806 281 806C340 806 345 739 420 739C492 739 519 798 493 872H467C475 838 468 804 429 804Z" glyph-name="Otilde" horiz-adv-x="700" unicode="&#213;" /><glyph d="M38 261C38 75 159 -10 301 -10C456 -10 560 90 560 266C560 451 429 533 301 533C149 533 38 432 38 261ZM476 265C476 127 396 64 309 64C228 64 143 119 143 262C143 386 215 453 310 453C392 453 476 393 476 265ZM163 631H188C177 674 185 714 225 714C287 714 286 632 364 632C434 632 462 698 434 784H408C419 741 412 701 372 701C317 701 317 783 233 783C163 783 134 719 163 631Z" glyph-name="Otilde.small" horiz-adv-x="597" /><glyph d="M80 690V0H183V683L130 615H284C374 615 443 578 443 483C443 381 368 350 291 350H133V275H313C439 275 545 336 545 487C545 619 446 690 310 690Z" glyph-name="P" horiz-adv-x="563" unicode="P" /><glyph d="M73 525V0H171V520L120 458H254C329 458 382 426 382 359C382 287 325 259 259 259H120V192H280C394 192 481 244 481 359C481 467 399 525 279 525Z" glyph-name="P.small" horiz-adv-x="499" /><glyph d="M309 6C309 -94 375 -148 492 -148C578 -148 636 -106 636 -29H597C594 -67 563 -87 516 -87C445 -87 410 -56 410 6ZM40 344C40 103 182 -10 352 -10C542 -10 660 129 660 353C660 591 510 698 352 698C167 698 40 563 40 344ZM568 349C568 170 478 75 363 75C255 75 150 156 150 344C150 509 239 607 363 607C468 607 568 522 568 349Z" glyph-name="Q" horiz-adv-x="700" unicode="Q" /><glyph d="M431 -119C502 -119 549 -84 549 -23H518C515 -51 488 -66 453 -66C396 -66 365 -39 362 7H269C276 -68 331 -119 431 -119ZM38 261C38 73 159 -10 301 -10C456 -10 560 97 560 269C560 447 431 533 301 533C146 533 38 429 38 261ZM476 265C476 127 396 64 309 64C228 64 143 119 143 262C143 386 215 453 310 453C392 453 476 393 476 265Z" glyph-name="Q.small" horiz-adv-x="598" /><glyph d="M591 33 582 54C576 50 567 47 557 47C519 47 515 73 511 181C507 299 439 340 335 340H128V300H279C360 300 395 270 400 176C407 38 425 -7 511 -7C548 -7 574 9 591 33ZM80 690V0H183V683L130 615H285C372 615 437 579 437 493C437 402 354 372 277 372H133V333H307C429 333 539 379 539 512C539 636 439 690 303 690Z" glyph-name="R" horiz-adv-x="607" unicode="R" /><glyph d="M512 38C496 36 485 39 476 48C464 62 459 89 455 134C448 223 407 265 309 265H110V220H256C328 220 353 194 357 127C362 45 376 -6 448 -6C482 -6 505 6 518 20ZM73 525V0H171V520L120 458H257C334 458 379 437 379 377C379 309 328 287 261 287H120V252H280C391 252 479 282 479 390C479 482 406 525 281 525Z" glyph-name="R.small" horiz-adv-x="538" /><glyph d="M591 33 582 54C576 50 567 47 557 47C519 47 515 73 511 181C507 299 439 340 335 340H128V300H279C360 300 395 270 400 176C407 38 425 -7 511 -7C548 -7 574 9 591 33ZM80 690V0H183V683L130 615H285C372 615 437 579 437 493C437 402 354 372 277 372H133V333H307C429 333 539 379 539 512C539 636 439 690 303 690ZM193 757 219 730 412 808 358 875Z" glyph-name="Racute" horiz-adv-x="607" unicode="&#340;" /><glyph d="M512 38C496 36 485 39 476 48C464 62 459 89 455 134C448 223 407 265 309 265H110V220H256C328 220 353 194 357 127C362 45 376 -6 448 -6C482 -6 505 6 518 20ZM73 525V0H171V520L120 458H257C334 458 379 437 379 377C379 309 328 287 261 287H120V252H280C391 252 479 282 479 390C479 482 406 525 281 525ZM166 634 206 601 363 760 302 816Z" glyph-name="Racute.small" horiz-adv-x="533" /><glyph d="M591 33 582 54C576 50 567 47 557 47C519 47 515 73 511 181C507 299 439 340 335 340H128V300H279C360 300 395 270 400 176C407 38 425 -7 511 -7C548 -7 574 9 591 33ZM80 690V0H183V683L130 615H285C372 615 437 579 437 493C437 402 354 372 277 372H133V333H307C429 333 539 379 539 512C539 636 439 690 303 690ZM137 839 277 729H323L462 839L439 873L300 801L161 873Z" glyph-name="Rcaron" horiz-adv-x="607" unicode="&#344;" /><glyph d="M512 38C496 36 485 39 476 48C464 62 459 89 455 134C448 223 407 265 309 265H110V220H256C328 220 353 194 357 127C362 45 376 -6 448 -6C482 -6 505 6 518 20ZM73 525V0H171V520L120 458H257C334 458 379 437 379 377C379 309 328 287 261 287H120V252H280C391 252 479 282 479 390C479 482 406 525 281 525ZM97 780 233 607H286L422 780L386 808L259 682L133 808Z" glyph-name="Rcaron.small" horiz-adv-x="533" /><glyph d="M591 33 582 54C576 50 567 47 557 47C519 47 515 73 511 181C507 299 439 340 335 340H128V300H279C360 300 395 270 400 176C407 38 425 -7 511 -7C548 -7 574 9 591 33ZM80 690V0H183V683L130 615H285C372 615 437 579 437 493C437 402 354 372 277 372H133V333H307C429 333 539 379 539 512C539 636 439 690 303 690ZM231 -218 280 -229 355 -55H277Z" glyph-name="Rcommaaccent" horiz-adv-x="607" unicode="&#342;" /><glyph d="M512 38C496 36 485 39 476 48C464 62 459 89 455 134C448 223 407 265 309 265H110V220H256C328 220 353 194 357 127C362 45 376 -6 448 -6C482 -6 505 6 518 20ZM73 525V0H171V520L120 458H257C334 458 379 437 379 377C379 309 328 287 261 287H120V252H280C391 252 479 282 479 390C479 482 406 525 281 525ZM193 -218 242 -229 317 -55H239Z" glyph-name="Rcommaaccent.small" horiz-adv-x="533" /><glyph d="M38 204C38 62 131 -10 278 -10C410 -10 514 59 514 188C514 304 443 360 326 393C230 420 167 447 167 515C167 588 219 623 296 623C373 623 435 582 440 506H494C503 627 418 698 283 698C153 698 61 627 61 507C61 393 132 342 239 311C341 281 404 256 404 177C404 94 341 66 262 66C178 66 102 104 93 204Z" glyph-name="S" horiz-adv-x="553" unicode="S" /><glyph d="M223 52C140 52 88 93 81 163H35C35 60 95 -10 239 -10C357 -10 441 46 441 147C441 244 377 278 281 303C201 325 151 341 151 396C151 447 190 469 256 469C319 469 372 436 377 380H428C434 475 361 533 239 533C121 533 50 471 50 381C50 287 103 253 194 228C279 204 336 192 336 126C336 75 290 52 223 52Z" glyph-name="S.small" horiz-adv-x="477" /><glyph d="M38 204C38 62 131 -10 278 -10C410 -10 514 59 514 188C514 304 443 360 326 393C230 420 167 447 167 515C167 588 219 623 296 623C373 623 435 582 440 506H494C503 627 418 698 283 698C153 698 61 627 61 507C61 393 132 342 239 311C341 281 404 256 404 177C404 94 341 66 262 66C178 66 102 104 93 204ZM196 757 222 730 415 808 361 875Z" glyph-name="Sacute" horiz-adv-x="553" unicode="&#346;" /><glyph d="M223 52C140 52 88 93 81 163H35C35 60 95 -10 239 -10C357 -10 441 46 441 147C441 244 377 278 281 303C201 325 151 341 151 396C151 447 190 469 256 469C319 469 372 436 377 380H428C434 475 361 533 239 533C121 533 50 471 50 381C50 287 103 253 194 228C279 204 336 192 336 126C336 75 290 52 223 52ZM162 634 202 601 359 760 298 816Z" glyph-name="Sacute.small" horiz-adv-x="477" /><glyph d="M38 204C38 62 131 -10 278 -10C410 -10 514 59 514 188C514 304 443 360 326 393C230 420 167 447 167 515C167 588 219 623 296 623C373 623 435 582 440 506H494C503 627 418 698 283 698C153 698 61 627 61 507C61 393 132 342 239 311C341 281 404 256 404 177C404 94 341 66 262 66C178 66 102 104 93 204ZM113 839 253 729H299L438 839L415 873L276 801L137 873Z" glyph-name="Scaron" horiz-adv-x="553" unicode="&#352;" /><glyph d="M223 52C140 52 88 93 81 163H35C35 60 95 -10 239 -10C357 -10 441 46 441 147C441 244 377 278 281 303C201 325 151 341 151 396C151 447 190 469 256 469C319 469 372 436 377 380H428C434 475 361 533 239 533C121 533 50 471 50 381C50 287 103 253 194 228C279 204 336 192 336 126C336 75 290 52 223 52ZM73 780 209 607H262L398 780L362 808L235 682L109 808Z" glyph-name="Scaron.small" horiz-adv-x="477" /><glyph d="M38 204C38 62 131 -10 278 -10C410 -10 514 59 514 188C514 304 443 360 326 393C230 420 167 447 167 515C167 588 219 623 296 623C373 623 435 582 440 506H494C503 627 418 698 283 698C153 698 61 627 61 507C61 393 132 342 239 311C341 281 404 256 404 177C404 94 341 66 262 66C178 66 102 104 93 204ZM225 -115C220 -161 239 -199 299 -199C347 -199 382 -172 382 -119C382 -57 333 -33 270 -49L285 -54L293 0L262 4L242 -69L261 -79C296 -72 319 -83 319 -119C319 -144 305 -158 285 -158C258 -158 248 -144 249 -115Z" glyph-name="Scedilla" horiz-adv-x="553" unicode="&#350;" /><glyph d="M223 52C140 52 88 93 81 163H35C35 60 95 -10 239 -10C357 -10 441 46 441 147C441 244 377 278 281 303C201 325 151 341 151 396C151 447 190 469 256 469C319 469 372 436 377 380H428C434 475 361 533 239 533C121 533 50 471 50 381C50 287 103 253 194 228C279 204 336 192 336 126C336 75 290 52 223 52ZM184 -115C179 -161 198 -199 258 -199C306 -199 341 -172 341 -119C341 -57 292 -33 229 -49L244 -54L252 0L221 4L201 -69L220 -79C255 -72 278 -83 278 -119C278 -144 264 -158 244 -158C217 -158 207 -144 208 -115Z" glyph-name="Scedilla.small" horiz-adv-x="477" /><glyph d="M162 253 169 259C169 259 145 74 327 74C442 74 526 161 526 332C526 334 526 351 526 353C524 531 425 606 313 606C199 606 140 545 117 493H70C92 633 200 698 332 698C507 698 635 576 635 349C635 122 507 -11 325 -11C110 -11 67 146 67 252C67 274 69 308 71 323H592V253Z" glyph-name="Schwa" horiz-adv-x="686" unicode="&#399;" /><glyph d="M535 272C535 439 431 533 276 533C138 533 58 447 58 336H97C105 403 152 459 249 459C364 459 430 386 430 270C430 268 430 253 430 251C430 134 362 64 274 64C180 64 164 127 164 168C164 182 166 195 166 200H472L476 251H84C81 236 78 196 78 170C78 83 120 -10 281 -10C433 -10 535 108 535 272Z" glyph-name="Schwa.small" horiz-adv-x="569" /><glyph d="M38 204C38 62 131 -10 278 -10C410 -10 514 59 514 188C514 304 443 360 326 393C230 420 167 447 167 515C167 588 219 623 296 623C373 623 435 582 440 506H494C503 627 418 698 283 698C153 698 61 627 61 507C61 393 132 342 239 311C341 281 404 256 404 177C404 94 341 66 262 66C178 66 102 104 93 204ZM118 763 141 729 280 801 419 729 443 763 303 873H257Z" glyph-name="Scircumflex" horiz-adv-x="553" unicode="&#348;" /><glyph d="M223 52C140 52 88 93 81 163H35C35 60 95 -10 239 -10C357 -10 441 46 441 147C441 244 377 278 281 303C201 325 151 341 151 396C151 447 190 469 256 469C319 469 372 436 377 380H428C434 475 361 533 239 533C121 533 50 471 50 381C50 287 103 253 194 228C279 204 336 192 336 126C336 75 290 52 223 52ZM73 632 107 600 236 726 364 600 398 632 262 803H209Z" glyph-name="Scircumflex.small" horiz-adv-x="477" /><glyph d="M38 204C38 62 131 -10 278 -10C410 -10 514 59 514 188C514 304 443 360 326 393C230 420 167 447 167 515C167 588 219 623 296 623C373 623 435 582 440 506H494C503 627 418 698 283 698C153 698 61 627 61 507C61 393 132 342 239 311C341 281 404 256 404 177C404 94 341 66 262 66C178 66 102 104 93 204ZM205 -218 254 -229 329 -55H251Z" glyph-name="Scommaaccent" horiz-adv-x="553" unicode="&#536;" /><glyph d="M223 52C140 52 88 93 81 163H35C35 60 95 -10 239 -10C357 -10 441 46 441 147C441 244 377 278 281 303C201 325 151 341 151 396C151 447 190 469 256 469C319 469 372 436 377 380H428C434 475 361 533 239 533C121 533 50 471 50 381C50 287 103 253 194 228C279 204 336 192 336 126C336 75 290 52 223 52ZM169 -218 218 -229 293 -55H215Z" glyph-name="Scommaaccent.small" horiz-adv-x="477" /><glyph d="M328 0V688H225V0ZM0 688V611H553V688Z" glyph-name="T" horiz-adv-x="553" unicode="T" /><glyph d="M202 522V0H300V522ZM8 523V454H494V523Z" glyph-name="T.small" horiz-adv-x="502" /><glyph d="M97 362V312H456V362ZM328 0V688H225V0ZM0 688V611H553V688Z" glyph-name="Tbar" horiz-adv-x="553" unicode="&#358;" /><glyph d="M107 287V237H395V287ZM202 522V0H300V522ZM8 523V454H494V523Z" glyph-name="Tbar.small" horiz-adv-x="502" /><glyph d="M328 0V688H225V0ZM0 688V611H553V688ZM114 839 254 729H300L439 839L416 873L277 801L138 873Z" glyph-name="Tcaron" horiz-adv-x="553" unicode="&#356;" /><glyph d="M202 522V0H300V522ZM8 523V454H494V523ZM88 780 224 607H277L413 780L377 808L250 682L124 808Z" glyph-name="Tcaron.small" horiz-adv-x="502" /><glyph d="M328 0V688H225V0ZM0 688V611H553V688ZM213 -115C208 -161 227 -199 287 -199C335 -199 370 -172 370 -119C370 -57 321 -33 258 -49L273 -54L281 0L250 4L230 -69L249 -79C284 -72 307 -83 307 -119C307 -144 293 -158 273 -158C246 -158 236 -144 237 -115Z" glyph-name="Tcedilla" horiz-adv-x="553" unicode="&#354;" /><glyph d="M202 522V0H300V522ZM8 523V454H494V523ZM186 -115C181 -161 200 -199 260 -199C308 -199 343 -172 343 -119C343 -57 294 -33 231 -49L246 -54L254 0L223 4L203 -69L222 -79C257 -72 280 -83 280 -119C280 -144 266 -158 246 -158C219 -158 209 -144 210 -115Z" glyph-name="Tcedilla.small" horiz-adv-x="502" /><glyph d="M328 0V688H225V0ZM0 688V611H553V688ZM191 -218 240 -229 315 -55H237Z" glyph-name="Tcommaaccent" horiz-adv-x="553" unicode="&#538;" /><glyph d="M202 522V0H300V522ZM8 523V454H494V523ZM169 -218 218 -229 293 -55H215Z" glyph-name="Tcommaaccent.small" horiz-adv-x="502" /><glyph d="M80 557V0H183V550L130 482H284C374 482 443 443 443 350C443 250 368 217 291 217H133V142H313C439 142 545 203 545 354C545 486 446 557 310 557ZM80 690V0H183V690Z" glyph-name="Thorn" horiz-adv-x="563" unicode="&#222;" /><glyph d="M253 362C329 362 381 331 381 264C381 192 325 165 259 165H169V362ZM169 0V98H278C392 98 479 149 479 265C479 372 397 431 276 431H169V525H70V0Z" glyph-name="Thorn.small" horiz-adv-x="496" /><glyph d="M70 313C70 131 120 -10 338 -10C528 -10 588 132 588 319V690H508V328C508 176 479 78 349 78C213 78 180 179 180 332V690H70Z" glyph-name="U" horiz-adv-x="658" unicode="U" /><glyph d="M68 234C68 95 110 -10 294 -10C453 -10 505 95 505 238V525H426V243C426 127 403 65 304 65C203 65 174 130 174 247V525H68Z" glyph-name="U.small" horiz-adv-x="573" /><glyph d="M70 313C70 131 120 -10 338 -10C528 -10 588 132 588 319V690H508V328C508 176 479 78 349 78C213 78 180 179 180 332V690H70ZM264 757 290 730 483 808 429 875Z" glyph-name="Uacute" horiz-adv-x="658" unicode="&#218;" /><glyph d="M68 234C68 95 110 -10 294 -10C453 -10 505 95 505 238V525H426V243C426 127 403 65 304 65C203 65 174 130 174 247V525H68ZM236 634 276 601 433 760 372 816Z" glyph-name="Uacute.small" horiz-adv-x="568" /><glyph d="M70 313C70 131 120 -10 338 -10C528 -10 588 132 588 319V690H508V328C508 176 479 78 349 78C213 78 180 179 180 332V690H70ZM199 876C194 809 233 735 346 735C458 735 497 809 492 876H456C451 845 427 803 346 803C262 803 240 845 235 876Z" glyph-name="Ubreve" horiz-adv-x="658" unicode="&#364;" /><glyph d="M68 234C68 95 110 -10 294 -10C453 -10 505 95 505 238V525H426V243C426 127 403 65 304 65C203 65 174 130 174 247V525H68ZM300 626C415 626 449 719 444 794H408C403 759 387 698 300 698C214 698 197 759 193 794H156C151 719 185 626 300 626Z" glyph-name="Ubreve.small" horiz-adv-x="568" /><glyph d="M70 313C70 131 120 -10 338 -10C528 -10 588 132 588 319V690H508V328C508 176 479 78 349 78C213 78 180 179 180 332V690H70ZM182 763 205 729 344 801 483 729 507 763 367 873H321Z" glyph-name="Ucircumflex" horiz-adv-x="658" unicode="&#219;" /><glyph d="M68 234C68 95 110 -10 294 -10C453 -10 505 95 505 238V525H426V243C426 127 403 65 304 65C203 65 174 130 174 247V525H68ZM136 632 170 600 299 726 427 600 461 632 325 803H272Z" glyph-name="Ucircumflex.small" horiz-adv-x="568" /><glyph d="M70 313C70 131 120 -10 338 -10C528 -10 588 132 588 319V690H508V328C508 176 479 78 349 78C213 78 180 179 180 332V690H70ZM213 750H306V844H213ZM387 750H480V844H387Z" glyph-name="Udieresis" horiz-adv-x="658" unicode="&#220;" /><glyph d="M68 234C68 95 110 -10 294 -10C453 -10 505 95 505 238V525H426V243C426 127 403 65 304 65C203 65 174 130 174 247V525H68ZM167 666H260V760H167ZM341 666H434V760H341Z" glyph-name="Udieresis.small" horiz-adv-x="568" /><glyph d="M70 313C70 131 120 -10 338 -10C528 -10 588 132 588 319V690H508V328C508 176 479 78 349 78C213 78 180 179 180 332V690H70ZM227 808 420 730 446 757 281 875Z" glyph-name="Ugrave" horiz-adv-x="658" unicode="&#217;" /><glyph d="M68 234C68 95 110 -10 294 -10C453 -10 505 95 505 238V525H426V243C426 127 403 65 304 65C203 65 174 130 174 247V525H68ZM178 760 335 601 375 634 239 816Z" glyph-name="Ugrave.small" horiz-adv-x="568" /><glyph d="M70 313C70 131 120 -10 338 -10C528 -10 588 132 588 319V690H508V328C508 176 479 78 349 78C213 78 180 179 180 332V690H70ZM220 752 255 717 391 826 348 872ZM380 752 415 717 551 826 508 872Z" glyph-name="Uhungarumlaut" horiz-adv-x="658" unicode="&#368;" /><glyph d="M68 234C68 95 110 -10 294 -10C453 -10 505 95 505 238V525H426V243C426 127 403 65 304 65C203 65 174 130 174 247V525H68ZM172 627 220 604 319 787 255 813ZM342 627 390 604 492 780 431 810Z" glyph-name="Uhungarumlaut.small" horiz-adv-x="568" /><glyph d="M70 313C70 131 120 -10 338 -10C528 -10 588 132 588 319V690H508V328C508 176 479 78 349 78C213 78 180 179 180 332V690H70ZM207 838V776H483V838Z" glyph-name="Umacron" horiz-adv-x="658" unicode="&#362;" /><glyph d="M68 234C68 95 110 -10 294 -10C453 -10 505 95 505 238V525H426V243C426 127 403 65 304 65C203 65 174 130 174 247V525H68ZM152 760V698H428V760Z" glyph-name="Umacron.small" horiz-adv-x="568" /><glyph d="M70 313C70 131 120 -10 338 -10C528 -10 588 132 588 319V690H508V328C508 176 479 78 349 78C213 78 180 179 180 332V690H70ZM378 -123C378 -185 412 -207 466 -207C525 -207 546 -166 544 -115H517C517 -140 506 -159 484 -159C456 -159 447 -142 447 -114C447 -55 481 16 523 70L512 74C452 14 378 -40 378 -123Z" glyph-name="Uogonek" horiz-adv-x="658" unicode="&#370;" /><glyph d="M68 234C68 95 110 -10 294 -10C453 -10 505 95 505 238V525H426V243C426 127 403 65 304 65C203 65 174 130 174 247V525H68ZM320 -123C320 -185 354 -207 408 -207C467 -207 488 -166 486 -115H459C459 -140 448 -159 426 -159C398 -159 389 -142 389 -114C389 -55 423 16 465 70L454 74C394 14 320 -40 320 -123Z" glyph-name="Uogonek.small" horiz-adv-x="568" /><glyph d="M70 313C70 131 120 -10 338 -10C528 -10 588 132 588 319V690H508V328C508 176 479 78 349 78C213 78 180 179 180 332V690H70ZM243 815C243 759 286 715 348 715C412 715 454 759 454 815C454 872 412 916 348 916C287 916 243 872 243 815ZM400 808C400 779 378 756 349 756C318 756 297 779 297 808C297 838 318 861 349 861C378 861 400 838 400 808Z" glyph-name="Uring" horiz-adv-x="658" unicode="&#366;" /><glyph d="M68 234C68 95 110 -10 294 -10C453 -10 505 95 505 238V525H426V243C426 127 403 65 304 65C203 65 174 130 174 247V525H68ZM191 732C191 674 235 628 299 628C366 628 409 674 409 732C409 791 366 836 299 836C236 836 191 791 191 732ZM355 725C355 693 332 669 300 669C267 669 244 693 244 725C244 758 267 783 300 783C332 783 355 758 355 725Z" glyph-name="Uring.small" horiz-adv-x="568" /><glyph d="M70 313C70 131 120 -10 338 -10C528 -10 588 132 588 319V690H508V328C508 176 479 78 349 78C213 78 180 179 180 332V690H70ZM422 804C369 804 363 871 284 871C212 871 184 815 210 739H236C228 774 236 806 274 806C333 806 338 739 413 739C485 739 512 798 486 872H460C468 838 461 804 422 804Z" glyph-name="Utilde" horiz-adv-x="658" unicode="&#360;" /><glyph d="M68 234C68 95 110 -10 294 -10C453 -10 505 95 505 238V525H426V243C426 127 403 65 304 65C203 65 174 130 174 247V525H68ZM159 631H184C173 674 181 714 221 714C283 714 282 632 360 632C430 632 458 698 430 784H404C415 741 408 701 368 701C313 701 313 783 229 783C159 783 130 719 159 631Z" glyph-name="Utilde.small" horiz-adv-x="568" /><glyph d="M3 690 251 -3H361L608 690H525L315 98H326L124 690Z" glyph-name="V" horiz-adv-x="603" unicode="V" /><glyph d="M3 525 208 -1H309L514 525H429L264 88H279L117 525Z" glyph-name="V.small" horiz-adv-x="516" /><glyph d="M13 690 205 -3H313L479 517H465L628 -3H736L924 690H837L683 105H698L525 687H449L263 87L289 73L125 690Z" glyph-name="W" horiz-adv-x="928" unicode="W" /><glyph d="M8 525 176 -1H279L416 378H408L546 -1H645L811 525H729L597 93H609L460 521H389L233 77L258 65L117 525Z" glyph-name="W.small" horiz-adv-x="818" /><glyph d="M13 690 205 -3H313L479 517H465L628 -3H736L924 690H837L683 105H698L525 687H449L263 87L289 73L125 690ZM432 757 458 730 651 808 597 875Z" glyph-name="Wacute" horiz-adv-x="928" unicode="&#7810;" /><glyph d="M8 525 176 -1H279L416 378H408L546 -1H645L811 525H729L597 93H609L460 521H389L233 77L258 65L117 525ZM391 634 431 601 588 760 527 816Z" glyph-name="Wacute.small" horiz-adv-x="818" /><glyph d="M13 690 205 -3H313L479 517H465L628 -3H736L924 690H837L683 105H698L525 687H449L263 87L289 73L125 690ZM329 763 352 729 491 801 630 729 654 763 514 873H468Z" glyph-name="Wcircumflex" horiz-adv-x="928" unicode="&#372;" /><glyph d="M8 525 176 -1H279L416 378H408L546 -1H645L811 525H729L597 93H609L460 521H389L233 77L258 65L117 525ZM269 632 303 600 432 726 560 600 594 632 458 803H405Z" glyph-name="Wcircumflex.small" horiz-adv-x="818" /><glyph d="M13 690 205 -3H313L479 517H465L628 -3H736L924 690H837L683 105H698L525 687H449L263 87L289 73L125 690ZM351 750H444V844H351ZM525 750H618V844H525Z" glyph-name="Wdieresis" horiz-adv-x="928" unicode="&#7812;" /><glyph d="M8 525 176 -1H279L416 378H408L546 -1H645L811 525H729L597 93H609L460 521H389L233 77L258 65L117 525ZM299 666H392V760H299ZM473 666H566V760H473Z" glyph-name="Wdieresis.small" horiz-adv-x="818" /><glyph d="M13 690 205 -3H313L479 517H465L628 -3H736L924 690H837L683 105H698L525 687H449L263 87L289 73L125 690ZM339 808 532 730 558 757 393 875Z" glyph-name="Wgrave" horiz-adv-x="928" unicode="&#7808;" /><glyph d="M8 525 176 -1H279L416 378H408L546 -1H645L811 525H729L597 93H609L460 521H389L233 77L258 65L117 525ZM277 760 434 601 474 634 338 816Z" glyph-name="Wgrave.small" horiz-adv-x="818" /><glyph d="M17 690 241 335 266 313 453 0H585L337 391L316 417L148 690ZM472 690 291 407 255 385 10 0H102L307 331L341 354L563 690Z" glyph-name="X" horiz-adv-x="595" unicode="X" /><glyph d="M32 525 215 253 243 233 392 0H512L309 301L283 325L152 525ZM404 525 264 313 223 296 20 0H112L277 250L317 267L495 525Z" glyph-name="X.small" horiz-adv-x="536" /><glyph d="M333 285H232L-3 690H124L311 361H290L474 690H560ZM230 311H333V0H230Z" glyph-name="Y" horiz-adv-x="551" unicode="Y" /><glyph d="M296 206 205 209 5 525H114L273 276H258L410 525H490ZM203 229H301V0H203Z" glyph-name="Y.small" horiz-adv-x="495" /><glyph d="M333 285H232L-3 690H124L311 361H290L474 690H560ZM230 311H333V0H230ZM222 757 248 730 441 808 387 875Z" glyph-name="Yacute" horiz-adv-x="551" unicode="&#221;" /><glyph d="M296 206 205 209 5 525H114L273 276H258L410 525H490ZM203 229H301V0H203ZM221 634 261 601 418 760 357 816Z" glyph-name="Yacute.small" horiz-adv-x="490" /><glyph d="M333 285H232L-3 690H124L311 361H290L474 690H560ZM230 311H333V0H230ZM134 763 157 729 296 801 435 729 459 763 319 873H273Z" glyph-name="Ycircumflex" horiz-adv-x="551" unicode="&#374;" /><glyph d="M296 206 205 209 5 525H114L273 276H258L410 525H490ZM203 229H301V0H203ZM100 632 134 600 263 726 391 600 425 632 289 803H236Z" glyph-name="Ycircumflex.small" horiz-adv-x="490" /><glyph d="M333 285H232L-3 690H124L311 361H290L474 690H560ZM230 311H333V0H230ZM159 750H252V844H159ZM333 750H426V844H333Z" glyph-name="Ydieresis" horiz-adv-x="551" unicode="&#376;" /><glyph d="M296 206 205 209 5 525H114L273 276H258L410 525H490ZM203 229H301V0H203ZM132 666H225V760H132ZM306 666H399V760H306Z" glyph-name="Ydieresis.small" horiz-adv-x="490" /><glyph d="M333 285H232L-3 690H124L311 361H290L474 690H560ZM230 311H333V0H230ZM173 808 366 730 392 757 227 875Z" glyph-name="Ygrave" horiz-adv-x="551" unicode="&#7922;" /><glyph d="M296 206 205 209 5 525H114L273 276H258L410 525H490ZM203 229H301V0H203ZM133 760 290 601 330 634 194 816Z" glyph-name="Ygrave.small" horiz-adv-x="490" /><glyph d="M40 72V3H513V78H66L137 36L505 619V688H56V613H484L415 670Z" glyph-name="Z" horiz-adv-x="553" unicode="Z" /><glyph d="M35 63V3H453V67H60L124 31L446 463V523H45V458H426L363 507Z" glyph-name="Z.small" horiz-adv-x="488" /><glyph d="M40 72V3H513V78H66L137 36L505 619V688H56V613H484L415 670ZM202 755 228 728 421 806 367 873Z" glyph-name="Zacute" horiz-adv-x="553" unicode="&#377;" /><glyph d="M35 63V3H453V67H60L124 31L446 463V523H45V458H426L363 507ZM179 634 219 601 376 760 315 816Z" glyph-name="Zacute.small" horiz-adv-x="488" /><glyph d="M40 72V3H513V78H66L137 36L505 619V688H56V613H484L415 670ZM125 839 265 729H311L450 839L427 873L288 801L149 873Z" glyph-name="Zcaron" horiz-adv-x="553" unicode="&#381;" /><glyph d="M35 63V3H453V67H60L124 31L446 463V523H45V458H426L363 507ZM99 780 235 607H288L424 780L388 808L261 682L135 808Z" glyph-name="Zcaron.small" horiz-adv-x="488" /><glyph d="M40 72V3H513V78H66L137 36L505 619V688H56V613H484L415 670ZM230 749H337V847H230Z" glyph-name="Zdotaccent" horiz-adv-x="553" unicode="&#379;" /><glyph d="M35 63V3H453V67H60L124 31L446 463V523H45V458H426L363 507ZM200 662H307V760H200Z" glyph-name="Zdotaccent.small" horiz-adv-x="488" /><glyph d="M310 101C310 15 346 -8 405 -8C436 -8 462 8 471 25L462 42C456 38 450 36 444 36C421 36 402 52 402 134V324C402 426 348 490 233 490C110 490 61 413 61 324H99C106 375 142 419 208 419C275 419 310 382 310 306C310 263 310 145 310 101ZM38 115C38 44 82 -10 167 -10C301 -10 339 114 339 197H310C310 128 280 53 205 53C160 53 134 78 134 123C134 178 166 213 237 213C269 213 302 205 318 199L321 234C300 248 251 259 213 259C86 259 38 192 38 115Z" glyph-name="a" horiz-adv-x="480" unicode="a" /><glyph d="M193 467C193 414 220 400 259 400C280 400 296 408 300 418L295 427C289 424 284 427 277 432C266 441 262 457 262 488C262 510 262 569 262 595C262 658 224 698 152 698C71 698 39 650 39 596H66C71 622 88 647 131 647C174 647 193 623 193 583C193 557 193 494 193 467ZM22 473C22 430 50 399 106 399C187 399 211 473 211 521H193C193 484 175 445 134 445C108 445 93 458 93 481C93 511 112 529 151 529C171 529 189 525 198 521L200 548C187 557 157 561 134 561C53 561 22 520 22 473Z" glyph-name="a.superior" horiz-adv-x="308" /><glyph d="M310 101C310 15 346 -8 405 -8C436 -8 462 8 471 25L462 42C456 38 450 36 444 36C421 36 402 52 402 134V324C402 426 348 490 233 490C110 490 61 413 61 324H99C106 375 142 419 208 419C275 419 310 382 310 306C310 263 310 145 310 101ZM38 115C38 44 82 -10 167 -10C301 -10 339 114 339 197H310C310 128 280 53 205 53C160 53 134 78 134 123C134 178 166 213 237 213C269 213 302 205 318 199L321 234C300 248 251 259 213 259C86 259 38 192 38 115ZM176 584 216 551 373 710 312 766Z" glyph-name="aacute" horiz-adv-x="480" unicode="&#225;" /><glyph d="M310 101C310 15 346 -8 405 -8C436 -8 462 8 471 25L462 42C456 38 450 36 444 36C421 36 402 52 402 134V324C402 426 348 490 233 490C110 490 61 413 61 324H99C106 375 142 419 208 419C275 419 310 382 310 306C310 263 310 145 310 101ZM38 115C38 44 82 -10 167 -10C301 -10 339 114 339 197H310C310 128 280 53 205 53C160 53 134 78 134 123C134 178 166 213 237 213C269 213 302 205 318 199L321 234C300 248 251 259 213 259C86 259 38 192 38 115ZM250 576C365 576 399 669 394 744H358C353 709 337 648 250 648C164 648 147 709 143 744H106C101 669 135 576 250 576Z" glyph-name="abreve" horiz-adv-x="480" unicode="&#259;" /><glyph d="M310 101C310 15 346 -8 405 -8C436 -8 462 8 471 25L462 42C456 38 450 36 444 36C421 36 402 52 402 134V324C402 426 348 490 233 490C110 490 61 413 61 324H99C106 375 142 419 208 419C275 419 310 382 310 306C310 263 310 145 310 101ZM38 115C38 44 82 -10 167 -10C301 -10 339 114 339 197H310C310 128 280 53 205 53C160 53 134 78 134 123C134 178 166 213 237 213C269 213 302 205 318 199L321 234C300 248 251 259 213 259C86 259 38 192 38 115ZM78 582 112 550 241 676 369 550 403 582 267 753H214Z" glyph-name="acircumflex" horiz-adv-x="480" unicode="&#226;" /><glyph d="M151 584 191 551 348 710 287 766Z" glyph-name="acute" horiz-adv-x="500" unicode="&#180;" /><glyph d="M138 757 164 730 357 808 303 875Z" glyph-name="acute.cap" horiz-adv-x="500" /><glyph d="M310 101C310 15 346 -8 405 -8C436 -8 462 8 471 25L462 42C456 38 450 36 444 36C421 36 402 52 402 134V324C402 426 348 490 233 490C110 490 61 413 61 324H99C106 375 142 419 208 419C275 419 310 382 310 306C310 263 310 145 310 101ZM38 115C38 44 82 -10 167 -10C301 -10 339 114 339 197H310C310 128 280 53 205 53C160 53 134 78 134 123C134 178 166 213 237 213C269 213 302 205 318 199L321 234C300 248 251 259 213 259C86 259 38 192 38 115ZM110 616H203V710H110ZM284 616H377V710H284Z" glyph-name="adieresis" horiz-adv-x="480" unicode="&#228;" /><glyph d="M318 225C318 76 388 -10 523 -10C639 -10 706 67 706 169H676C673 104 627 58 546 58C449 58 404 123 404 233C404 234 404 248 404 250C405 355 453 414 524 414C602 414 613 363 613 327C613 314 611 301 611 298H362L359 251H684C687 264 690 305 690 329C690 408 646 490 523 490C389 490 318 373 318 225ZM388 195V304C388 406 347 490 226 490C108 490 61 413 61 324H90C96 376 129 421 201 421C277 421 310 378 310 306V237C286 247 245 256 213 256C86 256 38 189 38 112C38 41 83 -10 179 -10C315 -10 388 115 388 195ZM205 53C160 53 130 78 130 123C130 178 166 213 237 213C263 213 292 208 310 202V197C310 126 280 53 205 53Z" glyph-name="ae" horiz-adv-x="746" unicode="&#230;" /><glyph d="M318 225C318 76 388 -10 523 -10C639 -10 706 67 706 169H676C673 104 627 58 546 58C449 58 404 123 404 233C404 234 404 248 404 250C405 355 453 414 524 414C602 414 613 363 613 327C613 314 611 301 611 298H362L359 251H684C687 264 690 305 690 329C690 408 646 490 523 490C389 490 318 373 318 225ZM388 195V304C388 406 347 490 226 490C108 490 61 413 61 324H90C96 376 129 421 201 421C277 421 310 378 310 306V237C286 247 245 256 213 256C86 256 38 189 38 112C38 41 83 -10 179 -10C315 -10 388 115 388 195ZM205 53C160 53 130 78 130 123C130 178 166 213 237 213C263 213 292 208 310 202V197C310 126 280 53 205 53ZM371 584 411 551 568 710 507 766Z" glyph-name="aeacute" horiz-adv-x="746" unicode="&#509;" /><glyph d="M310 101C310 15 346 -8 405 -8C436 -8 462 8 471 25L462 42C456 38 450 36 444 36C421 36 402 52 402 134V324C402 426 348 490 233 490C110 490 61 413 61 324H99C106 375 142 419 208 419C275 419 310 382 310 306C310 263 310 145 310 101ZM38 115C38 44 82 -10 167 -10C301 -10 339 114 339 197H310C310 128 280 53 205 53C160 53 134 78 134 123C134 178 166 213 237 213C269 213 302 205 318 199L321 234C300 248 251 259 213 259C86 259 38 192 38 115ZM119 710 276 551 316 584 180 766Z" glyph-name="agrave" horiz-adv-x="480" unicode="&#224;" /><glyph d="M310 101C310 15 346 -8 405 -8C436 -8 462 8 471 25L462 42C456 38 450 36 444 36C421 36 402 52 402 134V324C402 426 348 490 233 490C110 490 61 413 61 324H99C106 375 142 419 208 419C275 419 310 382 310 306C310 263 310 145 310 101ZM38 115C38 44 82 -10 167 -10C301 -10 339 114 339 197H310C310 128 280 53 205 53C160 53 134 78 134 123C134 178 166 213 237 213C269 213 302 205 318 199L321 234C300 248 251 259 213 259C86 259 38 192 38 115ZM105 710V648H381V710Z" glyph-name="amacron" horiz-adv-x="480" unicode="&#257;" /><glyph d="M321 228C264 338 202 456 202 536C202 652 286 698 385 698C491 698 540 634 540 567C540 452 425 419 316 395C210 372 142 328 142 220C142 116 215 70 299 70C427 70 548 152 559 339H610C610 130 461 -10 284 -10C140 -10 35 62 35 200C35 371 189 404 300 436C386 461 470 482 470 561C470 606 444 640 391 640C336 640 303 608 303 544C303 470 362 368 419 260C503 103 536 55 601 55C637 55 663 74 665 124H705C705 41 662 -10 574 -10C492 -10 420 36 321 228Z" glyph-name="ampersand" horiz-adv-x="722" unicode="&amp;" /><glyph d="M273 169C222 254 172 343 172 406C172 495 246 533 329 533C414 533 455 488 455 430C455 343 367 319 261 294C181 275 130 245 130 168C130 95 185 55 253 55C365 55 464 122 480 262H522C522 109 389 -9 236 -9C115 -9 33 45 33 151C33 273 158 311 252 335C330 354 397 369 397 427C397 461 374 485 336 485C290 485 267 460 267 415C267 367 318 285 366 202C435 86 455 42 512 42C548 42 561 63 563 101H599C599 28 562 -9 487 -9C421 -9 357 28 273 169Z" glyph-name="ampersand.small" horiz-adv-x="615" /><glyph d="M300 -129C300 -175 327 -207 381 -207C441 -207 462 -166 459 -115H436C436 -140 425 -162 400 -162C372 -162 361 -142 361 -117C361 -58 401 -19 445 2L423 14C362 -22 300 -60 300 -129ZM310 101C310 15 346 -8 405 -8C436 -8 462 8 471 25L462 42C456 38 450 36 444 36C421 36 402 52 402 134V324C402 426 348 490 233 490C110 490 61 413 61 324H99C106 375 142 419 208 419C275 419 310 382 310 306C310 263 310 145 310 101ZM38 115C38 44 82 -10 167 -10C301 -10 339 114 339 197H310C310 128 280 53 205 53C160 53 134 78 134 123C134 178 166 213 237 213C269 213 302 205 318 199L321 234C300 248 251 259 213 259C86 259 38 192 38 115Z" glyph-name="aogonek" horiz-adv-x="480" unicode="&#261;" /><glyph d="M133 345H83C86 425 121 482 202 482C248 482 277 465 307 447C334 432 360 416 395 416C441 416 459 440 463 482H512C509 398 476 344 395 344C354 344 324 359 296 375C266 392 240 410 202 410C156 410 137 379 133 345ZM133 128H83C86 208 121 265 202 265C245 265 274 249 303 232C332 216 359 199 395 199C441 199 459 223 463 265H512C509 181 476 127 395 127C351 127 320 143 291 160C263 177 238 193 202 193C156 193 137 162 133 128Z" glyph-name="approxequal" horiz-adv-x="585" unicode="&#8776;" /><glyph d="M310 101C310 15 346 -8 405 -8C436 -8 462 8 471 25L462 42C456 38 450 36 444 36C421 36 402 52 402 134V324C402 426 348 490 233 490C110 490 61 413 61 324H99C106 375 142 419 208 419C275 419 310 382 310 306C310 263 310 145 310 101ZM38 115C38 44 82 -10 167 -10C301 -10 339 114 339 197H310C310 128 280 53 205 53C160 53 134 78 134 123C134 178 166 213 237 213C269 213 302 205 318 199L321 234C300 248 251 259 213 259C86 259 38 192 38 115ZM137 682C137 624 181 578 245 578C312 578 355 624 355 682C355 741 312 786 245 786C182 786 137 741 137 682ZM301 675C301 643 278 619 246 619C213 619 190 643 190 675C190 708 213 733 246 733C278 733 301 708 301 675Z" glyph-name="aring" horiz-adv-x="480" unicode="&#229;" /><glyph d="M310 101C310 15 346 -8 405 -8C436 -8 462 8 471 25L462 42C456 38 450 36 444 36C421 36 402 52 402 134V324C402 426 348 490 233 490C110 490 61 413 61 324H99C106 375 142 419 208 419C275 419 310 382 310 306C310 263 310 145 310 101ZM38 115C38 44 82 -10 167 -10C301 -10 339 114 339 197H310C310 128 280 53 205 53C160 53 134 78 134 123C134 178 166 213 237 213C269 213 302 205 318 199L321 234C300 248 251 259 213 259C86 259 38 192 38 115ZM132 637C132 579 176 533 240 533C307 533 350 579 350 637C350 696 307 741 240 741C177 741 132 696 132 637ZM296 630C296 598 273 574 241 574C208 574 185 598 185 630C185 663 208 688 241 688C273 688 296 663 296 630ZM148 810 174 783 367 861 313 928Z" glyph-name="aringacute" horiz-adv-x="480" unicode="&#507;" /><glyph d="M250 690H325V43H250ZM253 48 472 277 521 226 288 -8 55 226 104 277 323 48Z" glyph-name="arrowdown" horiz-adv-x="576" unicode="&#8595;" /><glyph d="M573 429 521 483 100 62 153 9ZM90 0H420V71L105 63L154 15L162 329H90Z" glyph-name="arrowdownleft" horiz-adv-x="621" unicode="&#8601;" /><glyph d="M48 429 100 483 521 62 468 9ZM531 0H201V71L516 63L467 15L459 329H531Z" glyph-name="arrowdownright" horiz-adv-x="621" unicode="&#8600;" /><glyph d="M653 300V226H87V300ZM269 495 320 447 91 228 92 297 320 79 269 29 35 262Z" glyph-name="arrowleft" horiz-adv-x="703" unicode="&#8592;" /><glyph d="M50 300V226H616V300ZM434 495 383 447 612 228 611 297 383 79 434 29 668 262Z" glyph-name="arrowright" horiz-adv-x="703" unicode="&#8594;" /><glyph d="M326 0H251V647H326ZM323 642 104 413 55 464 288 698 521 464 472 413 253 642Z" glyph-name="arrowup" horiz-adv-x="576" unicode="&#8593;" /><glyph d="M573 46 521 -8 100 413 153 466ZM90 475H420V404L105 412L154 460L162 146H90Z" glyph-name="arrowupleft" horiz-adv-x="621" unicode="&#8598;" /><glyph d="M48 46 100 -8 521 413 468 466ZM531 475H201V404L516 412L467 460L459 146H531Z" glyph-name="arrowupright" horiz-adv-x="621" unicode="&#8599;" /><glyph d="M249 683 79 407 124 380 282 620H269L426 380L472 407L302 683Z" glyph-name="asciicircum" horiz-adv-x="562" unicode="^" /><glyph d="M197 384C241 384 270 367 299 348C327 331 354 313 390 313C441 313 455 342 458 384H507C504 301 476 237 390 237C346 237 315 254 285 273C258 290 233 308 197 308C146 308 130 272 128 238H78C81 318 111 384 197 384Z" glyph-name="asciitilde" horiz-adv-x="585" unicode="~" /><glyph d="M398 371 272 491 428 503 406 596 264 529 291 690H193L219 529L78 596L55 503L212 491L89 368L171 313L242 468L317 315Z" glyph-name="asterisk" horiz-adv-x="483" unicode="*" /><glyph d="M525 316C525 194 470 75 360 75C281 75 229 129 229 226C229 349 299 457 417 457C497 457 525 403 525 316ZM491 303C491 351 470 388 424 388C351 388 317 299 317 231C317 182 335 145 382 145C450 145 491 226 491 303ZM669 17 708 -33C682 -59 594 -132 433 -132C159 -132 40 30 40 251C40 461 177 667 441 667C659 667 795 531 795 334C795 127 659 72 576 72C509 72 486 105 486 162C486 180 487 201 491 228L517 390L531 445H596L570 293C568 281 560 226 558 212C550 153 558 133 592 133C642 133 722 177 722 334C722 500 617 602 439 602C216 602 114 425 114 252C114 57 225 -67 442 -67C572 -67 646 -4 669 17Z" glyph-name="at" horiz-adv-x="835" unicode="@" /><glyph d="M525 385C525 263 470 144 360 144C281 144 229 198 229 295C229 418 299 526 417 526C497 526 525 472 525 385ZM491 372C491 420 470 457 424 457C351 457 317 368 317 300C317 251 335 214 382 214C450 214 491 295 491 372ZM669 86 708 36C682 10 594 -63 433 -63C159 -63 40 99 40 320C40 530 177 736 441 736C659 736 795 600 795 403C795 196 659 141 576 141C509 141 486 174 486 231C486 249 487 270 491 297L517 459L531 514H596L570 362C568 350 560 295 558 281C550 222 558 202 592 202C642 202 722 246 722 403C722 569 617 671 439 671C216 671 114 494 114 321C114 126 225 2 442 2C572 2 646 65 669 86Z" glyph-name="at.cap" horiz-adv-x="835" /><glyph d="M488 301C488 192 436 97 343 97C260 97 226 150 226 227C226 329 284 421 389 421C461 421 488 375 488 301ZM457 289C457 330 440 362 399 362C339 362 309 287 309 228C309 187 324 158 366 158C414 158 457 217 457 289ZM523 248C519 226 516 206 516 193C516 165 524 153 548 153C587 153 661 183 661 312C661 452 567 540 411 540C222 540 121 403 121 247C121 83 216 -24 408 -24C518 -24 591 31 611 47L644 0C622 -22 542 -84 402 -84C157 -84 51 54 51 247C51 436 179 600 413 600C617 600 731 484 731 317C731 145 609 93 535 93C475 93 454 123 454 171C454 185 454 204 458 226L482 373L493 414H551Z" glyph-name="at.small" horiz-adv-x="773" /><glyph d="M310 101C310 15 346 -8 405 -8C436 -8 462 8 471 25L462 42C456 38 450 36 444 36C421 36 402 52 402 134V324C402 426 348 490 233 490C110 490 61 413 61 324H99C106 375 142 419 208 419C275 419 310 382 310 306C310 263 310 145 310 101ZM38 115C38 44 82 -10 167 -10C301 -10 339 114 339 197H310C310 128 280 53 205 53C160 53 134 78 134 123C134 178 166 213 237 213C269 213 302 205 318 199L321 234C300 248 251 259 213 259C86 259 38 192 38 115ZM94 581H119C108 624 116 664 156 664C218 664 217 582 295 582C365 582 393 648 365 734H339C350 691 343 651 303 651C248 651 248 733 164 733C94 733 65 669 94 581Z" glyph-name="atilde" horiz-adv-x="480" unicode="&#227;" /><glyph d="M152 242C152 68 222 -10 321 -10C431 -10 510 88 510 243C510 415 415 490 321 490C196 490 152 374 152 242ZM411 233C411 129 364 59 290 59C228 59 170 123 170 230C170 355 218 413 289 413C352 413 411 360 411 233ZM73 705V0H155L166 158L170 189V710Z" glyph-name="b" horiz-adv-x="550" unicode="b" /><glyph d="M104 550C104 447 141 399 209 399C278 399 328 458 328 550C328 652 270 698 209 698C126 698 104 625 104 550ZM253 543C253 486 229 449 186 449C148 449 118 486 118 541C118 613 146 642 185 642C223 642 253 614 253 543ZM44 824V405H107L115 496L118 514V828Z" glyph-name="b.superior" horiz-adv-x="353" /><glyph d="M110 710H15L333 -88H428Z" glyph-name="backslash" horiz-adv-x="443" unicode="\" /><glyph d="M174 -153H90V740H174Z" glyph-name="bar" horiz-adv-x="264" unicode="|" /><glyph d="M238 151C238 252 132 268 132 268V256C132 256 238 273 238 373C238 481 228 527 228 615C228 672 254 687 295 687H316V736H265C192 736 128 706 128 620C128 549 138 477 138 373C138 301 75 283 75 283V241C75 241 138 223 138 151C138 48 128 -25 128 -96C128 -182 192 -212 265 -212H316V-163H295C254 -163 228 -148 228 -91C228 -3 238 43 238 151Z" glyph-name="braceleft" horiz-adv-x="361" unicode="{" /><glyph d="M238 211C238 312 132 328 132 328V316C132 316 238 333 238 433C238 541 228 587 228 675C228 732 254 747 295 747H316V796H265C192 796 128 766 128 680C128 609 138 537 138 433C138 361 75 343 75 343V301C75 301 138 283 138 211C138 108 128 35 128 -36C128 -122 192 -152 265 -152H316V-103H295C254 -103 228 -88 228 -31C228 57 238 103 238 211Z" glyph-name="braceleft.cap" horiz-adv-x="361" /><glyph d="M233 150C233 251 127 267 127 267V255C127 255 233 272 233 372C233 433 229 464 229 522C229 579 254 590 288 590H309V639H261C189 639 134 612 134 527C134 465 138 439 138 372C138 300 75 282 75 282V240C75 240 138 222 138 150C138 88 134 57 134 -5C134 -90 189 -117 261 -117H309V-68H288C254 -68 229 -57 229 1C229 59 233 94 233 150Z" glyph-name="braceleft.small" horiz-adv-x="351" /><glyph d="M123 373C123 272 229 256 229 256V268C229 268 123 251 123 151C123 43 133 -3 133 -91C133 -148 107 -163 66 -163H45V-212H96C169 -212 233 -182 233 -96C233 -25 223 47 223 151C223 223 286 241 286 241V283C286 283 223 301 223 373C223 476 233 549 233 620C233 706 169 736 96 736H45V687H66C107 687 133 672 133 615C133 527 123 481 123 373Z" glyph-name="braceright" horiz-adv-x="361" unicode="}" /><glyph d="M123 433C123 332 229 316 229 316V328C229 328 123 311 123 211C123 103 133 57 133 -31C133 -88 107 -103 66 -103H45V-152H96C169 -152 233 -122 233 -36C233 35 223 107 223 211C223 283 286 301 286 301V343C286 343 223 361 223 433C223 536 233 609 233 680C233 766 169 796 96 796H45V747H66C107 747 133 732 133 675C133 587 123 541 123 433Z" glyph-name="braceright.cap" horiz-adv-x="361" /><glyph d="M118 150C118 251 224 267 224 267V255C224 255 118 272 118 372C118 433 122 464 122 522C122 579 97 590 63 590H42V639H90C162 639 217 612 217 527C217 465 213 439 213 372C213 300 276 282 276 282V240C276 240 213 222 213 150C213 88 217 57 217 -5C217 -90 162 -117 90 -117H42V-68H63C97 -68 122 -57 122 1C122 59 118 94 118 150Z" glyph-name="braceright.small" horiz-adv-x="351" /><glyph d="M181 685H293V737H90V-187H293V-135H181L187 -141V691Z" glyph-name="bracketleft" horiz-adv-x="323" unicode="[" /><glyph d="M181 750H293V802H90V-122H293V-70H181L187 -76V756Z" glyph-name="bracketleft.cap" horiz-adv-x="323" /><glyph d="M181 589H293V641H90V-123H293V-71H181L187 -77V595Z" glyph-name="bracketleft.small" horiz-adv-x="323" /><glyph d="M142 -135H30V-187H233V737H30V685H142L136 691V-141Z" glyph-name="bracketright" horiz-adv-x="323" unicode="]" /><glyph d="M142 -70H30V-122H233V802H30V750H142L136 756V-76Z" glyph-name="bracketright.cap" horiz-adv-x="323" /><glyph d="M142 -71H30V-123H233V641H30V589H142L136 595V-77Z" glyph-name="bracketright.small" horiz-adv-x="323" /><glyph d="M250 576C365 576 399 669 394 744H358C353 709 337 648 250 648C164 648 147 709 143 744H106C101 669 135 576 250 576Z" glyph-name="breve" horiz-adv-x="500" unicode="&#728;" /><glyph d="M104 876C99 809 138 735 251 735C363 735 402 809 397 876H361C356 845 332 803 251 803C167 803 145 845 140 876Z" glyph-name="breve.cap" horiz-adv-x="500" /><glyph d="M174 417H90V740H174ZM174 -153H90V170H174Z" glyph-name="brokenbar" horiz-adv-x="264" unicode="&#166;" /><glyph d="M193 199C270 199 332 254 332 337C332 420 270 475 193 475C117 475 55 420 55 337C55 254 117 199 193 199Z" glyph-name="bullet" horiz-adv-x="387" unicode="&#8226;" /><glyph d="M40 228C40 51 148 -10 254 -10C370 -10 429 64 429 166H394C385 98 346 56 273 56C200 56 139 117 139 233C139 336 182 416 265 416C343 416 363 364 369 322H413C415 336 415 351 413 367C406 427 365 490 251 490C120 490 40 376 40 228Z" glyph-name="c" horiz-adv-x="469" unicode="c" /><glyph d="M25 541C25 433 96 399 163 399C239 399 276 443 276 505H250C246 467 222 446 179 446C129 446 101 480 101 544C101 600 123 645 171 645C217 645 230 619 232 595H266C267 603 268 612 267 622C264 659 237 698 161 698C76 698 25 630 25 541Z" glyph-name="c.superior" horiz-adv-x="301" /><glyph d="M40 228C40 51 148 -10 254 -10C370 -10 429 64 429 166H394C385 98 346 56 273 56C200 56 139 117 139 233C139 336 182 416 265 416C343 416 363 364 369 322H413C415 336 415 351 413 367C406 427 365 490 251 490C120 490 40 376 40 228ZM179 584 219 551 376 710 315 766Z" glyph-name="cacute" horiz-adv-x="469" unicode="&#263;" /><glyph d="M97 730 233 557H286L422 730L386 758L259 632L133 758Z" glyph-name="caron" horiz-adv-x="500" unicode="&#711;" /><glyph d="M88 839 228 729H274L413 839L390 873L251 801L112 873Z" glyph-name="caron.cap" horiz-adv-x="500" /><glyph d="M196 511H252L314 710H234Z" glyph-name="caronSlovak" horiz-adv-x="500" /><glyph d="M40 228C40 51 148 -10 254 -10C370 -10 429 64 429 166H394C385 98 346 56 273 56C200 56 139 117 139 233C139 336 182 416 265 416C343 416 363 364 369 322H413C415 336 415 351 413 367C406 427 365 490 251 490C120 490 40 376 40 228ZM95 730 231 557H284L420 730L384 758L257 632L131 758Z" glyph-name="ccaron" horiz-adv-x="470" unicode="&#269;" /><glyph d="M40 228C40 51 148 -10 254 -10C370 -10 429 64 429 166H394C385 98 346 56 273 56C200 56 139 117 139 233C139 336 182 416 265 416C343 416 363 364 369 322H413C415 336 415 351 413 367C406 427 365 490 251 490C120 490 40 376 40 228ZM187 -115C182 -161 201 -199 261 -199C309 -199 344 -172 344 -119C344 -57 295 -33 232 -49L247 -54L255 0L224 4L204 -69L223 -79C258 -72 281 -83 281 -119C281 -144 267 -158 247 -158C220 -158 210 -144 211 -115Z" glyph-name="ccedilla" horiz-adv-x="469" unicode="&#231;" /><glyph d="M40 228C40 51 148 -10 254 -10C370 -10 429 64 429 166H394C385 98 346 56 273 56C200 56 139 117 139 233C139 336 182 416 265 416C343 416 363 364 369 322H413C415 336 415 351 413 367C406 427 365 490 251 490C120 490 40 376 40 228ZM98 582 132 550 261 676 389 550 423 582 287 753H234Z" glyph-name="ccircumflex" horiz-adv-x="469" unicode="&#265;" /><glyph d="M40 228C40 51 148 -10 254 -10C370 -10 429 64 429 166H394C385 98 346 56 273 56C200 56 139 117 139 233C139 336 182 416 265 416C343 416 363 364 369 322H413C415 336 415 351 413 367C406 427 365 490 251 490C120 490 40 376 40 228ZM205 612H312V710H205Z" glyph-name="cdotaccent" horiz-adv-x="469" unicode="&#267;" /><glyph d="M185 -115C180 -161 199 -199 259 -199C307 -199 342 -172 342 -119C342 -57 293 -33 230 -49L245 -54L253 0L222 4L202 -69L221 -79C256 -72 279 -83 279 -119C279 -144 265 -158 245 -158C218 -158 208 -144 209 -115Z" glyph-name="cedilla" horiz-adv-x="500" unicode="&#184;" /><glyph d="M80 334C80 158 193 97 299 97C415 97 484 171 484 273H448C442 204 389 167 323 167C239 167 179 224 179 340C179 442 224 522 310 522C396 522 420 471 423 429H468C470 441 470 453 469 467C463 529 417 597 294 597C160 597 80 482 80 334ZM327 585V690H265V585ZM327 0V115H265V0Z" glyph-name="cent" horiz-adv-x="570" unicode="&#162;" /><glyph d="M392 245 50 630V494L387 115L720 491V626L382 245Z" glyph-name="chevrondown" horiz-adv-x="770" /><glyph d="M160 338 500 690H369L35 343L366 0H496L160 348Z" glyph-name="chevronleft" horiz-adv-x="568" /><glyph d="M408 338 68 690H199L533 343L202 0H72L408 348Z" glyph-name="chevronright" horiz-adv-x="568" /><glyph d="M378 498 720 113V249L383 628L50 252V117L388 498Z" glyph-name="chevronup" horiz-adv-x="770" /><glyph d="M88 582 122 550 251 676 379 550 413 582 277 753H224Z" glyph-name="circumflex" horiz-adv-x="500" unicode="&#710;" /><glyph d="M88 763 111 729 250 801 389 729 413 763 273 873H227Z" glyph-name="circumflex.cap" horiz-adv-x="500" /><glyph d="M70 49C70 18 92 -10 129 -10C163 -10 184 18 184 49C184 76 163 104 129 104C92 104 70 76 70 49ZM70 416C70 386 92 358 129 358C163 358 184 386 184 416C184 444 163 472 129 472C92 472 70 444 70 416Z" glyph-name="colon" horiz-adv-x="254" unicode=":" /><glyph d="M52 -137 73 -166C113 -144 185 -58 185 41C185 76 165 103 126 103C95 103 71 79 71 47C71 12 92 -7 127 -7C121 -61 79 -118 52 -137Z" glyph-name="comma" horiz-adv-x="254" unicode="," /><glyph d="M148 -218 197 -229 272 -55H194Z" glyph-name="commaaccent" horiz-adv-x="500" /><glyph d="M173 564H249L294 725L245 736Z" glyph-name="commaaccent.alt" horiz-adv-x="500" /><glyph d="M386 -12C579 -12 725 130 725 342C725 557 579 695 386 695C194 695 48 557 48 342C48 130 185 -12 386 -12ZM385 53C218 53 118 175 118 342C118 512 224 630 385 630C545 630 655 510 655 342C655 172 545 53 385 53ZM490 396H527C529 404 529 413 529 419C529 470 492 531 395 531C291 531 221 459 221 334C221 195 312 155 397 155C492 155 539 216 539 293H510C505 242 474 212 418 212C363 212 319 252 319 338C319 418 353 465 410 465C465 465 488 431 490 396Z" glyph-name="copyright" horiz-adv-x="773" unicode="&#169;" /><glyph d="M286 113C181 113 104 195 104 295C104 396 181 477 286 477C393 477 469 396 469 295C469 195 393 113 286 113ZM287 187C350 187 392 236 392 295C392 354 350 402 287 402C224 402 182 354 182 295C182 236 224 187 287 187ZM204 424 159 379 72 468 117 513ZM72 131 158 219 203 174 117 86ZM372 424 458 513 504 468 417 379ZM504 131 458 86 373 174 418 219Z" glyph-name="currency" horiz-adv-x="575" unicode="&#164;" /><glyph d="M40 238C40 65 135 -10 229 -10C354 -10 398 81 398 239C398 402 328 490 229 490C119 490 40 393 40 238ZM380 243C380 118 332 59 261 59C198 59 139 113 139 240C139 344 186 413 260 413C322 413 380 350 380 243ZM389 148 400 0H477V710L380 705V190Z" glyph-name="d" horiz-adv-x="550" unicode="d" /><glyph d="M25 547C25 445 83 399 144 399C225 399 248 454 248 546C248 642 211 698 143 698C74 698 25 638 25 547ZM235 550C235 479 207 449 168 449C131 449 100 478 100 548C100 604 124 641 168 641C205 641 235 605 235 550ZM242 496 250 405H309V828L235 824V520Z" glyph-name="d.superior" horiz-adv-x="353" /><glyph d="M211 -49C188 11 172 227 161 291L210 474L165 691H297L252 474L295 291C284 227 267 11 244 -49ZM422 528V414L231 464L40 414V528L231 483Z" glyph-name="dagger" horiz-adv-x="462" unicode="&#8224;" /><glyph d="M165 -49 210 166 164 318 210 476 165 691H297L252 476L298 318L252 166L297 -49ZM422 530V416L231 466L40 416V530L231 485ZM422 226V112L231 157L40 112V226L231 176Z" glyph-name="daggerdbl" horiz-adv-x="462" unicode="&#8225;" /><glyph d="M40 238C40 65 135 -10 229 -10C354 -10 398 81 398 239C398 402 328 490 229 490C119 490 40 393 40 238ZM380 243C380 118 332 59 261 59C198 59 139 113 139 240C139 344 186 413 260 413C322 413 380 350 380 243ZM389 148 400 0H477V710L380 705V190ZM556 511H612L674 710H594Z" glyph-name="dcaron" horiz-adv-x="649" unicode="&#271;" /><glyph d="M235 622V575H546V622ZM40 238C40 65 135 -10 229 -10C354 -10 398 81 398 239C398 402 328 490 229 490C119 490 40 393 40 238ZM380 243C380 118 332 59 261 59C198 59 139 113 139 240C139 344 186 413 260 413C322 413 380 350 380 243ZM389 148 400 0H477V710L380 705V190Z" glyph-name="dcroat" horiz-adv-x="558" unicode="&#273;" /><glyph d="M196 392C100 392 40 454 40 541C40 628 100 690 196 690C292 690 351 628 351 541C351 454 292 392 196 392ZM196 448C244 448 283 483 283 541C283 599 244 635 196 635C148 635 109 598 109 541C109 483 148 448 196 448Z" glyph-name="degree" horiz-adv-x="391" unicode="&#176;" /><glyph d="M118 616H211V710H118ZM292 616H385V710H292Z" glyph-name="dieresis" horiz-adv-x="500" unicode="&#168;" /><glyph d="M118 750H211V844H118ZM292 750H385V844H292Z" glyph-name="dieresis.cap" horiz-adv-x="500" /><glyph d="M505 351H80V272H505ZM240.3026 112.4647C240.3026 81.2077 261.1406 57.5282 296.1863 57.5282C328.3904 57.5282 348.2812 81.2077 348.2812 112.4647C348.2812 139.9329 327.4432 165.5068 295.2391 165.5068C261.1406 165.5068 240.3026 139.9329 240.3026 112.4647ZM240.3026 516.4647C240.3026 485.2077 261.1406 461.5282 296.1863 461.5282C328.3904 461.5282 348.2812 485.2077 348.2812 516.4647C348.2812 543.9329 327.4432 569.5068 295.2391 569.5068C261.1406 569.5068 240.3026 543.9329 240.3026 516.4647Z" glyph-name="divide" horiz-adv-x="585" unicode="&#247;" /><glyph d="M456 492H503C503 607 424 681 290 681C162 681 76 612 76 495C76 384 144 335 249 306C349 276 410 244 410 173C410 97 349 61 271 61C179 61 103 97 96 190H52C52 58 140 -10 287 -10C418 -10 523 59 523 184C523 298 449 351 337 382C244 407 185 438 185 504C185 576 235 609 312 609C385 609 452 571 456 492ZM325 358V750H262V358ZM325 -87V331H262V-87Z" glyph-name="dollar" horiz-adv-x="585" unicode="$" /><glyph d="M197 612H304V710H197Z" glyph-name="dotaccent" horiz-adv-x="500" unicode="&#729;" /><glyph d="M197 749H304V847H197Z" glyph-name="dotaccent.cap" horiz-adv-x="500" /><glyph d="M76 475V0H173V480Z" glyph-name="dotlessi" horiz-adv-x="250" unicode="&#305;" /><glyph d="M-27 -133C-27 -189 -12 -250 70 -250C159 -250 192 -184 192 -48V133V480L95 475V90V-85C95 -152 80 -183 49 -183C18 -183 7 -164 3 -133Z" glyph-name="dotlessj" horiz-adv-x="268" unicode="&#567;" /><glyph d="M40 225C40 70 122 -10 256 -10C372 -10 440 58 440 166H405C398 102 358 58 278 58C185 58 138 123 138 233V252C138 351 183 414 258 414C330 414 346 369 346 327C346 314 345 303 344 300H95L92 249H418C420 262 424 305 424 329C424 408 380 490 252 490C120 490 40 373 40 225Z" glyph-name="e" horiz-adv-x="480" unicode="e" /><glyph d="M25 540C25 448 78 399 164 399C240 399 283 445 283 505H257C255 470 225 445 182 445C125 445 97 484 97 545C97 546 97 553 97 554C97 612 126 647 166 647C208 647 214 618 214 597C214 590 213 582 212 580H65L63 549H269C271 557 273 582 273 598C273 648 243 698 162 698C79 698 25 627 25 540Z" glyph-name="e.superior" horiz-adv-x="307" /><glyph d="M40 225C40 70 122 -10 256 -10C372 -10 440 58 440 166H405C398 102 358 58 278 58C185 58 138 123 138 233V252C138 351 183 414 258 414C330 414 346 369 346 327C346 314 345 303 344 300H95L92 249H418C420 262 424 305 424 329C424 408 380 490 252 490C120 490 40 373 40 225ZM196 584 236 551 393 710 332 766Z" glyph-name="eacute" horiz-adv-x="480" unicode="&#233;" /><glyph d="M40 225C40 70 122 -10 256 -10C372 -10 440 58 440 166H405C398 102 358 58 278 58C185 58 138 123 138 233V252C138 351 183 414 258 414C330 414 346 369 346 327C346 314 345 303 344 300H95L92 249H418C420 262 424 305 424 329C424 408 380 490 252 490C120 490 40 373 40 225ZM264 576C379 576 413 669 408 744H372C367 709 351 648 264 648C178 648 161 709 157 744H120C115 669 149 576 264 576Z" glyph-name="ebreve" horiz-adv-x="480" unicode="&#277;" /><glyph d="M40 225C40 70 122 -10 256 -10C372 -10 440 58 440 166H405C398 102 358 58 278 58C185 58 138 123 138 233V252C138 351 183 414 258 414C330 414 346 369 346 327C346 314 345 303 344 300H95L92 249H418C420 262 424 305 424 329C424 408 380 490 252 490C120 490 40 373 40 225ZM92 730 228 557H281L417 730L381 758L254 632L128 758Z" glyph-name="ecaron" horiz-adv-x="480" unicode="&#283;" /><glyph d="M40 225C40 70 122 -10 256 -10C372 -10 440 58 440 166H405C398 102 358 58 278 58C185 58 138 123 138 233V252C138 351 183 414 258 414C330 414 346 369 346 327C346 314 345 303 344 300H95L92 249H418C420 262 424 305 424 329C424 408 380 490 252 490C120 490 40 373 40 225ZM98 582 132 550 261 676 389 550 423 582 287 753H234Z" glyph-name="ecircumflex" horiz-adv-x="480" unicode="&#234;" /><glyph d="M40 225C40 70 122 -10 256 -10C372 -10 440 58 440 166H405C398 102 358 58 278 58C185 58 138 123 138 233V252C138 351 183 414 258 414C330 414 346 369 346 327C346 314 345 303 344 300H95L92 249H418C420 262 424 305 424 329C424 408 380 490 252 490C120 490 40 373 40 225ZM128 616H221V710H128ZM302 616H395V710H302Z" glyph-name="edieresis" horiz-adv-x="480" unicode="&#235;" /><glyph d="M40 225C40 70 122 -10 256 -10C372 -10 440 58 440 166H405C398 102 358 58 278 58C185 58 138 123 138 233V252C138 351 183 414 258 414C330 414 346 369 346 327C346 314 345 303 344 300H95L92 249H418C420 262 424 305 424 329C424 408 380 490 252 490C120 490 40 373 40 225ZM207 612H314V710H207Z" glyph-name="edotaccent" horiz-adv-x="480" unicode="&#279;" /><glyph d="M40 225C40 70 122 -10 256 -10C372 -10 440 58 440 166H405C398 102 358 58 278 58C185 58 138 123 138 233V252C138 351 183 414 258 414C330 414 346 369 346 327C346 314 345 303 344 300H95L92 249H418C420 262 424 305 424 329C424 408 380 490 252 490C120 490 40 373 40 225ZM138 710 295 551 335 584 199 766Z" glyph-name="egrave" horiz-adv-x="480" unicode="&#232;" /><glyph d="M290 -10C443 -10 529 59 529 182C529 304 431 361 314 361V346C440 346 509 407 509 509C509 612 436 680 289 680C142 680 71 612 71 509C71 407 139 346 266 346V361C148 361 51 304 51 182C51 59 135 -10 290 -10ZM290 69C212 69 155 109 155 197C155 280 217 317 290 317C365 317 425 281 425 197C425 110 365 69 290 69ZM290 386C217 386 170 421 170 494C170 559 212 601 290 601C367 601 410 559 410 494C410 421 363 386 290 386Z" glyph-name="eight" horiz-adv-x="579" unicode="8" /><glyph d="M274 283V268C386 271 438 318 438 396C438 474 379 533 250 533C120 533 62 474 62 396C62 318 115 271 226 268V283C112 280 46 227 46 141C46 55 106 -10 251 -10C395 -10 455 55 455 141C455 228 388 281 274 283ZM250 304C185 304 157 335 157 382C157 427 188 462 250 462C312 462 343 427 343 382C343 335 315 304 250 304ZM251 60C178 60 146 101 146 154C146 209 182 243 251 243C321 243 355 209 355 154C355 101 321 60 251 60Z" glyph-name="eight.small" horiz-adv-x="500" /><glyph d="M274 283V268C386 271 438 318 438 396C438 474 379 533 250 533C120 533 62 474 62 396C62 318 115 271 226 268V283C112 280 46 227 46 141C46 55 106 -10 251 -10C395 -10 455 55 455 141C455 228 388 281 274 283ZM250 304C185 304 157 335 157 382C157 427 188 462 250 462C312 462 343 427 343 382C343 335 315 304 250 304ZM251 60C178 60 146 101 146 154C146 209 182 243 251 243C321 243 355 209 355 154C355 101 321 60 251 60Z" glyph-name="eight.small_tab" horiz-adv-x="500" /><glyph d="M293 -10C446 -10 532 59 532 182C532 304 434 361 317 361V346C443 346 512 407 512 509C512 612 439 680 292 680C145 680 74 612 74 509C74 407 142 346 269 346V361C151 361 54 304 54 182C54 59 138 -10 293 -10ZM293 69C215 69 158 109 158 197C158 280 220 317 293 317C368 317 428 281 428 197C428 110 368 69 293 69ZM293 386C220 386 173 421 173 494C173 559 215 601 293 601C370 601 413 559 413 494C413 421 366 386 293 386Z" glyph-name="eight.tab" horiz-adv-x="585" /><glyph d="M182 -105C283 -105 335 -62 335 11C335 84 274 119 198 119V109C280 109 323 145 323 207C323 268 277 311 181 311C85 311 41 268 41 207C41 145 84 109 165 109V119C89 119 29 84 29 11C29 -62 81 -105 182 -105ZM182 -47C138 -47 108 -25 108 22C108 67 141 91 182 91C225 91 256 67 256 22C256 -25 224 -47 182 -47ZM182 134C140 134 116 157 116 195C116 229 139 253 182 253C225 253 248 229 248 195C248 157 224 134 182 134Z" glyph-name="eightinferior" horiz-adv-x="365" unicode="&#8328;" /><glyph d="M182 400C283 400 335 443 335 516C335 589 274 624 198 624V614C280 614 323 650 323 712C323 773 277 816 181 816C85 816 41 773 41 712C41 650 84 614 165 614V624C89 624 29 589 29 516C29 443 81 400 182 400ZM182 458C138 458 108 480 108 527C108 572 141 596 182 596C225 596 256 572 256 527C256 480 224 458 182 458ZM182 639C140 639 116 662 116 700C116 734 139 758 182 758C225 758 248 734 248 700C248 662 224 639 182 639Z" glyph-name="eightsuperior" horiz-adv-x="365" unicode="&#8312;" /><glyph d="M70 48C70 15 92 -10 129 -10C163 -10 184 15 184 48C184 77 162 104 128 104C92 104 70 77 70 48ZM280 48C280 15 302 -10 339 -10C373 -10 394 15 394 48C394 77 372 104 338 104C302 104 280 77 280 48ZM490 48C490 15 512 -10 549 -10C583 -10 604 15 604 48C604 77 582 104 548 104C512 104 490 77 490 48Z" glyph-name="ellipsis" horiz-adv-x="674" unicode="&#8230;" /><glyph d="M40 225C40 70 122 -10 256 -10C372 -10 440 58 440 166H405C398 102 358 58 278 58C185 58 138 123 138 233V252C138 351 183 414 258 414C330 414 346 369 346 327C346 314 345 303 344 300H95L92 249H418C420 262 424 305 424 329C424 408 380 490 252 490C120 490 40 373 40 225ZM122 710V648H398V710Z" glyph-name="emacron" horiz-adv-x="480" unicode="&#275;" /><glyph d="M30 328V251H970V328Z" glyph-name="emdash" horiz-adv-x="1000" unicode="&#8212;" /><glyph d="M30 418V341H970V418Z" glyph-name="emdash.cap" horiz-adv-x="1000" /><glyph d="M30 343V266H535V343Z" glyph-name="endash" horiz-adv-x="566" unicode="&#8211;" /><glyph d="M30 438V361H535V438Z" glyph-name="endash.cap" horiz-adv-x="565" /><glyph d="M350 -205C440 -205 472 -139 472 -3V300C472 415 439 490 322 490C220 490 177 421 163 332L154 480L70 475V0H167V198C167 330 204 409 281 409C352 409 375 362 375 255V134C375 80 382 -14 382 -43C382 -110 366 -139 330 -139C295 -139 282 -122 281 -92H256C256 -144 269 -205 350 -205Z" glyph-name="eng" horiz-adv-x="537" unicode="&#331;" /><glyph d="M40 225C40 70 122 -10 256 -10C372 -10 440 58 440 166H405C398 102 358 58 278 58C185 58 138 123 138 233V252C138 351 183 414 258 414C330 414 346 369 346 327C346 314 345 303 344 300H95L92 249H418C420 262 424 305 424 329C424 408 380 490 252 490C120 490 40 373 40 225ZM269 -123C269 -185 303 -207 357 -207C416 -207 437 -166 435 -115H408C408 -140 397 -159 375 -159C347 -159 338 -142 338 -114C338 -55 372 16 414 70L403 74C343 14 269 -40 269 -123Z" glyph-name="eogonek" horiz-adv-x="480" unicode="&#281;" /><glyph d="M505 239H80V160H505ZM505 463H80V384H505Z" glyph-name="equal" horiz-adv-x="585" unicode="=" /><glyph d="M709 281V301C709 469 578 607 380 607C180 607 50 469 50 301C50 135 172 -5 380 -5C533 -5 621 52 673 125L648 146C587 64 509 26 380 26C288 26 226 52 181 94V281ZM380 576C465 576 532 550 579 506V309H181V506C228 551 293 576 380 576Z" glyph-name="estimated" horiz-adv-x="761" unicode="&#8494;" /><glyph d="M262 58C169 58 137 143 137 228C137 321 171 401 258 401C342 401 381 324 381 228C381 122 332 58 262 58ZM260 -11C390 -11 479 79 479 259C479 500 340 641 162 710L105 667C243 615 360 521 383 360L380 358C352 436 300 475 223 475C108 475 40 377 40 232C40 94 116 -11 260 -11ZM316 708 138 531H197L374 708Z" glyph-name="eth" horiz-adv-x="519" unicode="&#240;" /><glyph d="M188 192 203 690H91L106 192ZM90 44C90 11 112 -10 149 -10C183 -10 204 11 204 44C204 75 183 96 149 96C112 96 90 75 90 44Z" glyph-name="exclam" horiz-adv-x="294" unicode="!" /><glyph d="M176 182 186 525H89L99 182ZM83 44C83 11 105 -10 139 -10C170 -10 191 11 191 44C191 75 170 96 139 96C105 96 83 75 83 44Z" glyph-name="exclam.small" horiz-adv-x="274" /><glyph d="M106 283 91 -215H203L188 283ZM204 431C204 464 182 485 145 485C111 485 90 464 90 431C90 400 111 379 145 379C182 379 204 400 204 431Z" glyph-name="exclamdown" horiz-adv-x="294" unicode="&#161;" /><glyph d="M106 498 91 0H203L188 498ZM204 646C204 679 182 700 145 700C111 700 90 679 90 646C90 615 111 594 145 594C182 594 204 615 204 646Z" glyph-name="exclamdown.cap" horiz-adv-x="294" /><glyph d="M98 343 88 0H185L175 343ZM191 481C191 514 169 535 135 535C104 535 83 514 83 481C83 450 104 429 135 429C169 429 191 450 191 481Z" glyph-name="exclamdown.small" horiz-adv-x="369" /><glyph d="M92 0H189V371C189 495 165 513 164 568C164 609 188 644 239 644C283 644 303 622 306 591H336C338 609 337 623 334 637C324 679 290 710 224 710C133 710 82 649 82 572C82 518 92 497 92 422ZM15 465V428H307V475H90Z" glyph-name="f" horiz-adv-x="305" unicode="f" /><glyph d="M55 405H128V621C128 697 113 706 113 737C113 761 127 780 159 780C186 780 197 766 198 750H218C219 761 219 770 217 778C214 807 191 828 145 828C87 828 57 791 51 746C48 717 55 697 55 656ZM9 680V650H200V687H59Z" glyph-name="f.superior" horiz-adv-x="199" /><glyph d="M92 0H189V371C189 495 165 513 164 568C164 609 179 644 230 644C267 644 287 622 290 591H319C321 609 320 624 317 638C308 675 279 710 213 710C118 710 82 642 82 568C82 516 92 495 92 422ZM15 465V428H407V475H89ZM379 475V0H476V480ZM384 612H481V710H384Z" glyph-name="fi" horiz-adv-x="555" unicode="&#64257;" /><glyph d="M80 688V0H183V688ZM415 312V387H119V312ZM480 613V688H119V613ZM566 690V0H669V690Z" glyph-name="fi.cap" horiz-adv-x="754" /><glyph d="M126 590H473V670H91L80 324L131 305C140 318 183 369 267 369C354 369 411 318 411 228C411 136 355 74 264 74C172 74 119 122 119 198H65C51 51 159 -10 288 -10C431 -10 515 85 515 231C515 361 441 439 313 439C183 439 139 343 139 343L164 337L179 658Z" glyph-name="five" horiz-adv-x="565" unicode="5" /><glyph d="M418 448V523H86L75 250L124 233C133 244 171 280 232 280C301 280 348 244 348 177C348 110 304 65 232 65C163 65 117 96 116 158H64C53 35 146 -10 255 -10C378 -10 448 65 448 179C448 281 385 342 277 342C173 342 131 265 131 265L156 260L171 513L119 448Z" glyph-name="five.small" horiz-adv-x="500" /><glyph d="M418 448V523H86L75 250L124 233C133 244 171 280 232 280C301 280 348 244 348 177C348 110 304 65 232 65C163 65 117 96 116 158H64C53 35 146 -10 255 -10C378 -10 448 65 448 179C448 281 385 342 277 342C173 342 131 265 131 265L156 260L171 513L119 448Z" glyph-name="five.small_tab" horiz-adv-x="500" /><glyph d="M134 590H481V670H99L88 324L139 305C148 318 191 369 275 369C362 369 419 318 419 228C419 136 363 74 272 74C180 74 127 122 127 198H73C59 51 167 -10 296 -10C439 -10 523 85 523 231C523 361 449 439 321 439C191 439 147 343 147 343L172 337L187 658Z" glyph-name="five.tab" horiz-adv-x="585" /><glyph d="M81 240H298V303H54L46 91L84 77C91 86 116 113 165 113C212 113 245 87 245 37C245 -13 214 -46 161 -46C110 -46 79 -21 78 22H37C28 -72 100 -107 180 -107C271 -107 324 -50 324 40C324 118 278 164 199 164C117 164 92 104 92 104L109 101L121 295Z" glyph-name="fiveinferior" horiz-adv-x="355" unicode="&#8325;" /><glyph d="M81 745H298V808H54L46 596L84 582C91 591 116 618 165 618C212 618 245 592 245 542C245 492 214 459 161 459C110 459 79 484 78 527H37C28 433 100 398 180 398C271 398 324 455 324 545C324 623 278 669 199 669C117 669 92 609 92 609L109 606L121 800Z" glyph-name="fivesuperior" horiz-adv-x="355" unicode="&#8309;" /><glyph d="M92 0H189V371C189 495 165 513 164 568C164 609 186 644 236 644C272 644 293 622 296 591H326C328 609 327 624 324 638C315 675 284 710 218 710C123 710 80 642 80 568C80 516 92 495 92 422ZM15 465V428H302V475H89ZM391 705V0H488V710Z" glyph-name="fl" horiz-adv-x="563" unicode="&#64258;" /><glyph d="M80 688V0H183V688ZM415 312V387H119V312ZM480 613V688H119V613ZM566 690V3H669V690ZM605 80V3H981V80Z" glyph-name="fl.cap" horiz-adv-x="991" /><glyph d="M466 408H156V351H466ZM270 481 208 111C191 9 174 -53 107 -53C72 -53 52 -35 44 -23L15 -43C19 -74 53 -120 125 -120C241 -120 281 -24 298 79L359 450C375 552 394 613 460 613C495 613 513 596 521 583L551 602C547 634 514 680 442 680C327 680 287 584 270 481Z" glyph-name="florin" horiz-adv-x="585" unicode="&#402;" /><glyph d="M342 618V0H443V674H346L35 254V185H561V265H66L81 206L385 617Z" glyph-name="four" horiz-adv-x="585" unicode="4" /><glyph d="M287 0H384V525H290L20 200V141H477V211H50L61 157L324 474H287Z" glyph-name="four.small" horiz-adv-x="500" /><glyph d="M287 0H384V525H290L20 200V141H477V211H50L61 157L324 474H287Z" glyph-name="four.small_tab" horiz-adv-x="500" /><glyph d="M342 618V0H443V674H346L35 254V185H561V265H66L81 206L385 617Z" glyph-name="four.tab" horiz-adv-x="585" /><glyph d="M209 263V-100H285V304H211L19 56V7H354V64H44L52 20L239 262Z" glyph-name="fourinferior" horiz-adv-x="368" unicode="&#8324;" /><glyph d="M209 768V405H285V809H211L19 561V512H354V569H44L52 525L239 767Z" glyph-name="foursuperior" horiz-adv-x="368" unicode="&#8308;" /><glyph d="M355 670H432L92 0H14Z" glyph-name="fraction" horiz-adv-x="449" unicode="&#8260;" /><glyph d="M477 -81C477 -184 395 -250 236 -250C95 -250 31 -195 31 -111C31 -89 38 -74 44 -62H80C78 -70 76 -82 76 -93C76 -158 130 -186 233 -186C342 -186 385 -155 385 -102C385 -60 350 -38 272 -38H212C106 -38 56 -8 56 71C56 156 174 189 174 189L186 166C186 166 123 152 123 106C123 71 154 57 238 57H286C410 57 477 14 477 -81ZM394 314V401C394 475 426 490 451 490C491 490 503 466 505 442C506 431 504 420 501 412H484C484 428 479 443 459 443C439 443 425 426 425 379V319ZM51 321C51 420 123 490 242 490C340 490 425 426 425 325C425 222 358 150 242 150C134 150 51 206 51 321ZM337 317C337 380 295 423 240 423C178 423 140 374 140 314C140 240 184 205 239 205C296 205 337 247 337 317Z" glyph-name="g" horiz-adv-x="503" unicode="g" /><glyph d="M306 359C306 294 253 257 150 257C67 257 19 283 19 332C19 345 23 354 28 362H53C51 357 50 351 50 346C50 313 84 298 147 298C212 298 236 316 236 344C236 369 217 377 174 377H133C71 377 34 397 34 444C34 498 109 517 109 517L124 501C124 501 78 493 78 468C78 447 91 443 142 443H185C266 443 306 418 306 359ZM250 596V644C250 687 272 698 289 698C316 698 324 682 325 667C325 660 324 652 323 647H309C309 657 305 665 294 665C283 665 274 654 274 626V599ZM30 596C30 655 76 698 155 698C219 698 274 658 274 599C274 537 231 493 155 493C83 493 30 527 30 596ZM206 592C206 627 184 649 153 649C118 649 97 623 97 591C97 550 121 534 153 534C184 534 206 554 206 592Z" glyph-name="g.superior" horiz-adv-x="323" /><glyph d="M477 -81C477 -184 395 -250 236 -250C95 -250 31 -195 31 -111C31 -89 38 -74 44 -62H80C78 -70 76 -82 76 -93C76 -158 130 -186 233 -186C342 -186 385 -155 385 -102C385 -60 350 -38 272 -38H212C106 -38 56 -8 56 71C56 156 174 189 174 189L186 166C186 166 123 152 123 106C123 71 154 57 238 57H286C410 57 477 14 477 -81ZM394 314V401C394 475 426 490 451 490C491 490 503 466 505 442C506 431 504 420 501 412H484C484 428 479 443 459 443C439 443 425 426 425 379V319ZM51 321C51 420 123 490 242 490C340 490 425 426 425 325C425 222 358 150 242 150C134 150 51 206 51 321ZM337 317C337 380 295 423 240 423C178 423 140 374 140 314C140 240 184 205 239 205C296 205 337 247 337 317ZM245 576C360 576 394 669 389 744H353C348 709 332 648 245 648C159 648 142 709 138 744H101C96 669 130 576 245 576Z" glyph-name="gbreve" horiz-adv-x="503" unicode="&#287;" /><glyph d="M477 -81C477 -184 395 -250 236 -250C95 -250 31 -195 31 -111C31 -89 38 -74 44 -62H80C78 -70 76 -82 76 -93C76 -158 130 -186 233 -186C342 -186 385 -155 385 -102C385 -60 350 -38 272 -38H212C106 -38 56 -8 56 71C56 156 174 189 174 189L186 166C186 166 123 152 123 106C123 71 154 57 238 57H286C410 57 477 14 477 -81ZM394 314V401C394 475 426 490 451 490C491 490 503 466 505 442C506 431 504 420 501 412H484C484 428 479 443 459 443C439 443 425 426 425 379V319ZM51 321C51 420 123 490 242 490C340 490 425 426 425 325C425 222 358 150 242 150C134 150 51 206 51 321ZM337 317C337 380 295 423 240 423C178 423 140 374 140 314C140 240 184 205 239 205C296 205 337 247 337 317ZM86 582 120 550 249 676 377 550 411 582 275 753H222Z" glyph-name="gcircumflex" horiz-adv-x="503" unicode="&#285;" /><glyph d="M477 -81C477 -184 395 -250 236 -250C95 -250 31 -195 31 -111C31 -89 38 -74 44 -62H80C78 -70 76 -82 76 -93C76 -158 130 -186 233 -186C342 -186 385 -155 385 -102C385 -60 350 -38 272 -38H212C106 -38 56 -8 56 71C56 156 174 189 174 189L186 166C186 166 123 152 123 106C123 71 154 57 238 57H286C410 57 477 14 477 -81ZM394 314V401C394 475 426 490 451 490C491 490 503 466 505 442C506 431 504 420 501 412H484C484 428 479 443 459 443C439 443 425 426 425 379V319ZM51 321C51 420 123 490 242 490C340 490 425 426 425 325C425 222 358 150 242 150C134 150 51 206 51 321ZM337 317C337 380 295 423 240 423C178 423 140 374 140 314C140 240 184 205 239 205C296 205 337 247 337 317ZM217 564H293L338 725L289 736Z" glyph-name="gcommaaccent" horiz-adv-x="503" unicode="&#291;" /><glyph d="M477 -81C477 -184 395 -250 236 -250C95 -250 31 -195 31 -111C31 -89 38 -74 44 -62H80C78 -70 76 -82 76 -93C76 -158 130 -186 233 -186C342 -186 385 -155 385 -102C385 -60 350 -38 272 -38H212C106 -38 56 -8 56 71C56 156 174 189 174 189L186 166C186 166 123 152 123 106C123 71 154 57 238 57H286C410 57 477 14 477 -81ZM394 314V401C394 475 426 490 451 490C491 490 503 466 505 442C506 431 504 420 501 412H484C484 428 479 443 459 443C439 443 425 426 425 379V319ZM51 321C51 420 123 490 242 490C340 490 425 426 425 325C425 222 358 150 242 150C134 150 51 206 51 321ZM337 317C337 380 295 423 240 423C178 423 140 374 140 314C140 240 184 205 239 205C296 205 337 247 337 317ZM192 612H299V710H192Z" glyph-name="gdotaccent" horiz-adv-x="503" unicode="&#289;" /><glyph d="M75 460V0H172V441C172 580 216 644 307 644C368 644 408 606 408 554C408 508 381 480 354 456C319 425 278 393 278 342C278 293 312 265 362 231C408 202 450 186 450 124C450 70 409 40 363 40C305 40 278 76 271 132H235C235 35 289 -11 382 -11C480 -11 553 51 553 150C553 234 498 276 451 302C407 330 372 336 372 379C372 416 403 435 432 458C465 484 492 511 492 567C492 646 424 710 303 710C139 710 75 606 75 460Z" glyph-name="germandbls" horiz-adv-x="590" unicode="&#223;" /><glyph d="M38 204C38 62 131 -10 278 -10C410 -10 514 59 514 188C514 304 443 360 326 393C230 420 167 447 167 515C167 588 219 623 296 623C373 623 435 582 440 506H494C503 627 418 698 283 698C153 698 61 627 61 507C61 393 132 342 239 311C341 281 404 256 404 177C404 94 341 66 262 66C178 66 102 104 93 204ZM591 204C591 62 684 -10 831 -10C963 -10 1067 59 1067 188C1067 304 996 360 879 393C783 420 720 447 720 515C720 588 772 623 849 623C926 623 988 582 993 506H1047C1056 627 971 698 836 698C706 698 614 627 614 507C614 393 685 342 792 311C894 281 957 256 957 177C957 94 894 66 815 66C731 66 655 104 646 204Z" glyph-name="germandbls.cap" horiz-adv-x="1105" /><glyph d="M223 52C140 52 88 93 81 163H35C35 60 95 -10 239 -10C357 -10 441 46 441 147C441 244 377 278 281 303C201 325 151 341 151 396C151 447 190 469 256 469C319 469 372 436 377 380H428C434 475 361 533 239 533C121 533 50 471 50 381C50 287 103 253 194 228C279 204 336 192 336 126C336 75 290 52 223 52ZM703 52C620 52 568 93 561 163H515C515 60 575 -10 719 -10C837 -10 921 46 921 147C921 244 857 278 761 303C681 325 631 341 631 396C631 447 670 469 736 469C799 469 852 436 857 380H908C914 475 841 533 719 533C601 533 530 471 530 381C530 287 583 253 674 228C759 204 816 192 816 126C816 75 770 52 703 52Z" glyph-name="germandbls.small" horiz-adv-x="957" /><glyph d="M149 710 306 551 346 584 210 766Z" glyph-name="grave" horiz-adv-x="500" unicode="`" /><glyph d="M138 808 331 730 357 757 192 875Z" glyph-name="grave.cap" horiz-adv-x="500" /><glyph d="M404 303 95 447 126 514 490 340V278L126 104L95 171L404 315Z" glyph-name="greater" horiz-adv-x="575" unicode="&gt;" /><glyph d="M414 355 97 494 123 564 495 392V330L123 162L97 233L414 367ZM80 74H505V0H80Z" glyph-name="greaterequal" horiz-adv-x="570" unicode="&#8805;" /><glyph d="M125 246 243 424H156L45 257V241L156 74H243L125 252ZM324 246 442 424H355L244 257V241L355 74H442L324 252Z" glyph-name="guillemotleft" horiz-adv-x="487" unicode="&#171;" /><glyph d="M125 346 243 524H156L45 357V341L156 174H243L125 352ZM324 346 442 524H355L244 357V341L355 174H442L324 352Z" glyph-name="guillemotleft.cap" horiz-adv-x="487" /><glyph d="M362 252 244 74H331L442 241V257L331 424H244L362 246ZM163 252 45 74H132L243 241V257L132 424H45L163 246Z" glyph-name="guillemotright" horiz-adv-x="487" unicode="&#187;" /><glyph d="M362 352 244 174H331L442 341V357L331 524H244L362 346ZM163 352 45 174H132L243 341V357L132 524H45L163 346Z" glyph-name="guillemotright.cap" horiz-adv-x="487" /><glyph d="M125 246 243 424H156L45 257V241L156 74H243L125 252Z" glyph-name="guilsinglleft" horiz-adv-x="288" unicode="&#8249;" /><glyph d="M125 346 243 524H156L45 357V341L156 174H243L125 352Z" glyph-name="guilsinglleft.cap" horiz-adv-x="244" /><glyph d="M163 252 45 74H132L243 241V257L132 424H45L163 246Z" glyph-name="guilsinglright" horiz-adv-x="288" unicode="&#8250;" /><glyph d="M163 352 45 174H132L243 341V357L132 524H45L163 346Z" glyph-name="guilsinglright.cap" horiz-adv-x="244" /><glyph d="M475 0V300C475 415 441 490 325 490C190 490 162 355 162 234L170 198C172 330 206 409 283 409C355 409 378 362 378 255V0ZM73 705V0H170V314V370V710Z" glyph-name="h" horiz-adv-x="540" unicode="h" /><glyph d="M308 405V585C308 654 286 698 213 698C125 698 111 620 111 540L118 513C118 596 140 639 183 639C221 639 234 615 234 553V405ZM44 824V405H118V586V618V828Z" glyph-name="h.superior" horiz-adv-x="348" /><glyph d="M13 622V575H324V622ZM475 0V300C475 415 441 490 325 490C190 490 162 355 162 234L170 198C172 330 206 409 283 409C355 409 378 362 378 255V0ZM73 705V0H170V314V370V710Z" glyph-name="hbar" horiz-adv-x="540" unicode="&#295;" /><glyph d="M125 807 238 728 263 756 145 870H105L-13 756L13 728ZM475 0V300C475 415 441 490 325 490C190 490 162 355 162 234L170 198C172 330 206 409 283 409C355 409 378 362 378 255V0ZM73 705V0H170V314V370V710Z" glyph-name="hcircumflex" horiz-adv-x="540" unicode="&#293;" /><glyph d="M98 577 146 554 245 737 181 763ZM268 577 316 554 418 730 357 760Z" glyph-name="hungarumlaut" horiz-adv-x="500" unicode="&#733;" /><glyph d="M85 752 120 717 256 826 213 872ZM245 752 280 717 416 826 373 872Z" glyph-name="hungarumlaut.cap" horiz-adv-x="500" /><glyph d="M60 343V266H307V343Z" glyph-name="hyphen" horiz-adv-x="367" unicode="-" /><glyph d="M60 443V366H307V443Z" glyph-name="hyphen.cap" horiz-adv-x="367" /><glyph d="M76 475V0H173V480ZM74 612H181V710H74Z" glyph-name="i" horiz-adv-x="252" unicode="i" /><glyph d="M76 475V0H173V480ZM74 612H181V710H74Z" glyph-name="i.TRK" horiz-adv-x="252" /><glyph d="M46 688V405H119V692ZM42 767H124V834H42Z" glyph-name="i.superior" horiz-adv-x="168" unicode="&#8305;" /><glyph d="M76 475V0H173V480ZM45 584 85 551 242 710 181 766Z" glyph-name="iacute" horiz-adv-x="250" unicode="&#237;" /><glyph d="M76 475V0H173V480ZM127 576C242 576 276 669 271 744H235C230 709 214 648 127 648C41 648 24 709 20 744H-17C-22 669 12 576 127 576Z" glyph-name="ibreve" horiz-adv-x="250" unicode="&#301;" /><glyph d="M76 475V0H173V480ZM-35 582 -1 550 128 676 256 550 290 582 154 753H101Z" glyph-name="icircumflex" horiz-adv-x="250" unicode="&#238;" /><glyph d="M76 475V0H173V480ZM-6 616H87V710H-6ZM168 616H261V710H168Z" glyph-name="idieresis" horiz-adv-x="250" unicode="&#239;" /><glyph d="M76 475V0H173V480ZM9 710 166 551 206 584 70 766Z" glyph-name="igrave" horiz-adv-x="250" unicode="&#236;" /><glyph d="M76 475V0H173V480ZM74 612H181V710H74ZM226 -133C226 -189 241 -250 323 -250C412 -250 445 -184 445 -48V133V480L348 475V90V-85C348 -152 333 -183 302 -183C271 -183 260 -164 256 -133ZM348 612H455V710H348Z" glyph-name="ij" horiz-adv-x="521" unicode="&#307;" /><glyph d="M76 475V0H173V480ZM-11 710V648H265V710Z" glyph-name="imacron" horiz-adv-x="250" unicode="&#299;" /><glyph d="M158 237C109 237 94 277 94 309C94 341 109 380 158 380C198 380 226 347 249 309C226 271 198 237 158 237ZM431 176C525 176 561 245 561 310C561 376 531 441 437 441C373 441 336 400 297 346C260 401 218 441 153 441C60 441 24 376 24 308C24 244 54 175 147 175C211 175 249 217 288 272C325 217 367 176 431 176ZM426 238C387 238 359 271 336 308C358 345 386 379 426 379C476 379 492 340 492 308C492 276 476 238 426 238Z" glyph-name="infinity" horiz-adv-x="585" unicode="&#8734;" /><glyph d="M284 682C305 682 319 673 329 663L359 693C344 717 313 749 256 749C162 749 116 694 116 572C116 564 116 553 116 544L133 48C133 40 133 31 133 24C133 -57 117 -92 65 -92C45 -92 31 -83 20 -73L-10 -102C6 -129 38 -159 93 -159C191 -159 231 -101 231 23C231 29 231 37 231 44L216 543C216 551 216 560 216 567C216 649 233 682 284 682Z" glyph-name="integral" horiz-adv-x="349" unicode="&#8747;" /><glyph d="M49 -123C49 -176 76 -207 130 -207C190 -207 211 -166 208 -115H185C185 -140 174 -162 149 -162C121 -162 110 -143 110 -112C110 -65 137 -13 173 0L141 18C101 -14 49 -62 49 -123ZM76 475V0H173V480ZM74 612H181V710H74Z" glyph-name="iogonek" horiz-adv-x="250" unicode="&#303;" /><glyph d="M76 475V0H173V480ZM-8 581H17C6 624 14 664 54 664C116 664 115 582 193 582C263 582 291 648 263 734H237C248 691 241 651 201 651C146 651 146 733 62 733C-8 733 -37 669 -8 581Z" glyph-name="itilde" horiz-adv-x="250" unicode="&#297;" /><glyph d="M-27 -133C-27 -189 -12 -250 70 -250C159 -250 192 -184 192 -48V133V480L95 475V90V-85C95 -152 80 -183 49 -183C18 -183 7 -164 3 -133ZM95 612H202V710H95Z" glyph-name="j" horiz-adv-x="268" unicode="j" /><glyph d="M-18 335C-18 302 -8 257 47 257C109 257 130 300 130 385C130 400 130 483 130 494V692L57 688V464C57 428 62 375 62 357C62 319 52 305 31 305C10 305 3 317 2 335ZM54 767H136V834H54Z" glyph-name="j.superior" horiz-adv-x="176" /><glyph d="M-27 -133C-27 -189 -12 -250 70 -250C159 -250 192 -184 192 -48V133V480L95 475V90V-85C95 -152 80 -183 49 -183C18 -183 7 -164 3 -133ZM-22 582 12 550 141 676 269 550 303 582 167 753H114Z" glyph-name="jcircumflex" horiz-adv-x="268" unicode="&#309;" /><glyph d="M73 705V0H170V710ZM117 234 140 169 459 475H364ZM210 276 371 0H484L270 350Z" glyph-name="k" horiz-adv-x="497" unicode="k" /><glyph d="M44 824V405H118V828ZM78 548 97 500 305 688H230ZM135 565 232 405H315L182 620Z" glyph-name="k.superior" horiz-adv-x="325" /><glyph d="M73 705V0H170V710ZM117 234 140 169 459 475H364ZM210 276 371 0H484L270 350ZM188 -218 237 -229 312 -55H234Z" glyph-name="kcommaaccent" horiz-adv-x="497" unicode="&#311;" /><glyph d="M75 705V0H172V710Z" glyph-name="l" horiz-adv-x="247" unicode="l" /><glyph d="M45 824V405H118V828Z" glyph-name="l.superior" horiz-adv-x="163" /><glyph d="M75 705V0H172V710ZM24 757 50 730 243 808 189 875Z" glyph-name="lacute" horiz-adv-x="247" unicode="&#314;" /><glyph d="M75 705V0H172V710ZM246 511H302L364 710H284Z" glyph-name="lcaron" horiz-adv-x="343" unicode="&#318;" /><glyph d="M75 705V0H172V710ZM46 -218 95 -229 170 -55H92Z" glyph-name="lcommaaccent" horiz-adv-x="247" unicode="&#316;" /><glyph d="M235 313H331V403H235ZM75 705V0H172V710Z" glyph-name="ldot" horiz-adv-x="331" unicode="&#320;" /><glyph d="M171 303 480 447 449 514 85 340V278L449 104L480 171L171 315Z" glyph-name="less" horiz-adv-x="575" unicode="&lt;" /><glyph d="M171 355 488 494 462 564 90 392V330L462 162L488 233L171 367ZM505 74H80V0H505Z" glyph-name="lessequal" horiz-adv-x="585" unicode="&#8804;" /><glyph d="M218 523V173C218 91 236 57 289 57C326 57 348 70 357 98H380C375 31 333 -10 259 -10C165 -10 123 44 123 187V494C123 643 185 703 277 703C351 703 401 652 401 556C401 407 312 282 33 165L15 213C278 320 349 437 349 558C349 617 322 645 287 645C251 645 218 617 218 523Z" glyph-name="litre" horiz-adv-x="437" unicode="&#8467;" /><glyph d="M500 176V443H421V176ZM485 443H75V364H485Z" glyph-name="logicalnot" horiz-adv-x="585" unicode="&#172;" /><glyph d="M515 362 323 688H243L51 362V318L243 -6H323L515 318ZM284 88 142 342 284 595 425 342Z" glyph-name="lozenge" horiz-adv-x="566" unicode="&#9674;" /><glyph d="M8 191 239 397V476L8 270ZM75 705V0H172V710Z" glyph-name="lslash" horiz-adv-x="247" unicode="&#322;" /><glyph d="M463 0V300C463 415 434 490 317 490C179 490 158 355 158 234L167 198C167 329 199 409 276 409C347 409 366 362 366 255V0ZM759 0V300C759 415 734 490 617 490C485 490 455 353 455 229L463 193C463 318 493 409 572 409C643 409 662 362 662 255V0ZM70 475V0H167V303L164 336L154 480Z" glyph-name="m" horiz-adv-x="824" unicode="m" /><glyph d="M302 405V585C302 653 282 698 210 698C122 698 110 614 110 540L117 513C117 597 137 639 178 639C215 639 228 615 228 552V405ZM487 405V585C487 654 469 698 397 698C312 698 295 614 295 540L302 513C302 597 321 639 362 639C400 639 413 615 413 552V405ZM43 688V405H117V579L114 602L106 692Z" glyph-name="m.superior" horiz-adv-x="526" /><glyph d="M112 710V648H388V710Z" glyph-name="macron" horiz-adv-x="500" unicode="&#175;" /><glyph d="M112 838V776H388V838Z" glyph-name="macron.cap" horiz-adv-x="500" /><glyph d="M505 351H80V272H505Z" glyph-name="minus" horiz-adv-x="585" unicode="&#8722;" /><glyph d="M391 246 375 283C375 150 342 72 265 72C193 72 167 118 167 225V435H142V180C142 65 173 -10 263 -10C365 -10 391 123 391 246ZM167 -250V480L70 475V-250ZM478 -10C547 -10 568 35 568 93H543C543 73 533 56 512 56C477 56 472 85 472 128V480L375 475V201L380 118C380 40 410 -10 478 -10Z" glyph-name="mu" horiz-adv-x="580" unicode="&#181;" /><glyph d="M471 179 171 479 115 424 415 123ZM115 179 171 123 471 424 415 479Z" glyph-name="multiply" horiz-adv-x="585" unicode="&#215;" /><glyph d="M472 0V300C472 415 439 490 322 490C183 490 158 364 158 234L167 198C167 330 204 409 281 409C352 409 375 362 375 255V0ZM70 475V0H167V303L164 336L154 480Z" glyph-name="n" horiz-adv-x="537" unicode="n" /><glyph d="M307 405V585C307 654 285 698 211 698C123 698 109 620 109 540L116 515C116 597 138 639 181 639C220 639 233 615 233 553V405ZM43 688V405H116V576L114 603L106 692Z" glyph-name="n.superior" horiz-adv-x="346" unicode="&#8319;" /><glyph d="M472 0V300C472 415 439 490 322 490C183 490 158 364 158 234L167 198C167 330 204 409 281 409C352 409 375 362 375 255V0ZM70 475V0H167V303L164 336L154 480ZM200 584 240 551 397 710 336 766Z" glyph-name="nacute" horiz-adv-x="537" unicode="&#324;" /><glyph d="M472 0V300C472 415 439 490 322 490C183 490 158 364 158 234L167 198C167 330 204 409 281 409C352 409 375 362 375 255V0ZM70 475V0H167V303L164 336L154 480ZM121 730 257 557H310L446 730L410 758L283 632L157 758Z" glyph-name="ncaron" horiz-adv-x="537" unicode="&#328;" /><glyph d="M472 0V300C472 415 439 490 322 490C183 490 158 364 158 234L167 198C167 330 204 409 281 409C352 409 375 362 375 255V0ZM70 475V0H167V303L164 336L154 480ZM190 -218 239 -229 314 -55H236Z" glyph-name="ncommaaccent" horiz-adv-x="537" unicode="&#326;" /><glyph d="M275 324C204 324 151 368 151 459C151 541 201 597 280 597C365 597 408 538 408 462C408 383 363 324 275 324ZM272 -10C451 -10 531 147 531 345C531 553 455 680 276 680C154 680 57 604 57 458C57 318 141 255 243 255C367 255 440 335 432 459L424 457C429 426 431 369 431 339C431 161 369 71 256 71C150 71 125 140 121 186H66C60 86 110 -10 272 -10Z" glyph-name="nine" horiz-adv-x="573" unicode="9" /><glyph d="M237 259C177 259 140 291 140 358C140 416 179 458 242 458C306 458 340 419 340 363C340 305 307 259 237 259ZM234 -10C385 -10 456 116 456 269C456 431 390 533 238 533C134 533 50 472 50 357C50 249 116 198 207 198C308 198 365 261 362 353L355 352C360 335 361 275 361 263C361 127 307 63 218 63C135 63 113 113 109 146H57C51 66 97 -10 234 -10Z" glyph-name="nine.small" horiz-adv-x="500" /><glyph d="M237 259C177 259 140 291 140 358C140 416 179 458 242 458C306 458 340 419 340 363C340 305 307 259 237 259ZM234 -10C385 -10 456 116 456 269C456 431 390 533 238 533C134 533 50 472 50 357C50 249 116 198 207 198C308 198 365 261 362 353L355 352C360 335 361 275 361 263C361 127 307 63 218 63C135 63 113 113 109 146H57C51 66 97 -10 234 -10Z" glyph-name="nine.small_tab" horiz-adv-x="500" /><glyph d="M279 324C208 324 155 368 155 459C155 541 205 597 284 597C369 597 412 538 412 462C412 383 367 324 279 324ZM276 -10C455 -10 535 147 535 345C535 553 459 680 280 680C158 680 61 604 61 458C61 318 145 255 247 255C371 255 444 335 436 459L428 457C433 426 435 369 435 339C435 161 373 71 260 71C154 71 129 140 125 186H70C64 86 114 -10 276 -10Z" glyph-name="nine.tab" horiz-adv-x="585" /><glyph d="M172 103C130 103 103 128 103 175C103 217 130 248 175 248C222 248 246 217 246 176C246 132 221 103 172 103ZM170 -107C283 -107 335 -10 335 107C335 230 287 309 172 309C94 309 32 264 32 174C32 91 84 52 148 52C225 52 267 101 263 168H257C259 154 260 116 260 102C260 -2 220 -46 157 -46C98 -46 82 -11 79 16H38C33 -51 69 -107 170 -107Z" glyph-name="nineinferior" horiz-adv-x="360" unicode="&#8329;" /><glyph d="M172 608C130 608 103 633 103 680C103 722 130 753 175 753C222 753 246 722 246 681C246 637 221 608 172 608ZM170 398C283 398 335 495 335 612C335 735 287 814 172 814C94 814 32 769 32 679C32 596 84 557 148 557C225 557 267 606 263 673H257C259 659 260 621 260 607C260 503 220 459 157 459C98 459 82 494 79 521H38C33 454 69 398 170 398Z" glyph-name="ninesuperior" horiz-adv-x="360" unicode="&#8313;" /><glyph d="M383 557 129 69H199L452 557ZM505 237H80V163H505ZM505 460H80V386H505Z" glyph-name="notequal" horiz-adv-x="585" unicode="&#8800;" /><glyph d="M472 0V300C472 415 439 490 322 490C183 490 158 364 158 234L167 198C167 330 204 409 281 409C352 409 375 362 375 255V0ZM70 475V0H167V303L164 336L154 480ZM122 581H147C136 624 144 664 184 664C246 664 245 582 323 582C393 582 421 648 393 734H367C378 691 371 651 331 651C276 651 276 733 192 733C122 733 93 669 122 581Z" glyph-name="ntilde" horiz-adv-x="537" unicode="&#241;" /><glyph d="M194 0H104L202 665H292ZM604 486V422H59V486ZM424 0H334L433 665H523ZM567 251V187H22V251Z" glyph-name="numbersign" horiz-adv-x="625" unicode="#" /><glyph d="M87 638 513 -5H596V690H514V-2L579 84L181 690H80V0H161V689ZM700.874 306V229H996.7553V306ZM836 392C740 392 680 454 680 541C680 628 740 690 836 690C932 690 991 628 991 541C991 454 932 392 836 392ZM836 448C884 448 923 483 923 541C923 599 884 635 836 635C788 635 749 598 749 541C749 483 788 448 836 448Z" glyph-name="numero" horiz-adv-x="1052" unicode="&#8470;" /><glyph d="M40 239C40 75 132 -10 259 -10C394 -10 476 81 476 237C476 403 381 490 259 490C130 490 40 394 40 239ZM379 241C379 118 330 59 259 59C184 59 137 121 137 241C137 349 184 414 258 414C336 414 379 345 379 241Z" glyph-name="o" horiz-adv-x="516" unicode="o" /><glyph d="M25 547C25 449 84 399 167 399C255 399 308 453 308 546C308 646 246 698 167 698C82 698 25 639 25 547ZM235 548C235 480 207 449 167 449C123 449 98 482 98 549C98 607 124 642 166 642C211 642 235 604 235 548Z" glyph-name="o.superior" horiz-adv-x="332" /><glyph d="M40 239C40 75 132 -10 259 -10C394 -10 476 81 476 237C476 403 381 490 259 490C130 490 40 394 40 239ZM379 241C379 118 330 59 259 59C184 59 137 121 137 241C137 349 184 414 258 414C336 414 379 345 379 241ZM181 584 221 551 378 710 317 766Z" glyph-name="oacute" horiz-adv-x="516" unicode="&#243;" /><glyph d="M40 239C40 75 132 -10 259 -10C394 -10 476 81 476 237C476 403 381 490 259 490C130 490 40 394 40 239ZM379 241C379 118 330 59 259 59C184 59 137 121 137 241C137 349 184 414 258 414C336 414 379 345 379 241ZM261 576C376 576 410 669 405 744H369C364 709 348 648 261 648C175 648 158 709 154 744H117C112 669 146 576 261 576Z" glyph-name="obreve" horiz-adv-x="516" unicode="&#335;" /><glyph d="M40 239C40 75 132 -10 259 -10C394 -10 476 81 476 237C476 403 381 490 259 490C130 490 40 394 40 239ZM379 241C379 118 330 59 259 59C184 59 137 121 137 241C137 349 184 414 258 414C336 414 379 345 379 241ZM98 582 132 550 261 676 389 550 423 582 287 753H234Z" glyph-name="ocircumflex" horiz-adv-x="516" unicode="&#244;" /><glyph d="M40 239C40 75 132 -10 259 -10C394 -10 476 81 476 237C476 403 381 490 259 490C130 490 40 394 40 239ZM379 241C379 118 330 59 259 59C184 59 137 121 137 241C137 349 184 414 258 414C336 414 379 345 379 241ZM128 616H221V710H128ZM302 616H395V710H302Z" glyph-name="odieresis" horiz-adv-x="516" unicode="&#246;" /><glyph d="M379 241C379 118 330 59 259 59C184 59 137 121 137 241C137 349 184 414 258 414C336 414 379 345 379 241ZM40 239C40 75 132 -10 259 -10C394 -10 461 88 461 237C461 402 381 490 259 490C130 490 40 394 40 239ZM393 225C393 70 459 -10 589 -10C705 -10 773 67 773 169H743C740 104 693 58 613 58C515 58 471 123 471 233C471 234 471 248 471 250C473 355 519 414 591 414C668 414 679 363 679 327C679 314 678 301 677 298H428L425 251H751C753 264 757 305 757 329C757 408 713 490 585 490C467 490 393 373 393 225Z" glyph-name="oe" horiz-adv-x="813" unicode="&#339;" /><glyph d="M273 -123C273 -185 307 -207 361 -207C420 -207 441 -166 439 -115H412C412 -140 401 -159 379 -159C351 -159 342 -142 342 -114C342 -55 376 16 418 70L407 74C347 14 273 -40 273 -123Z" glyph-name="ogonek" horiz-adv-x="500" unicode="&#731;" /><glyph d="M40 239C40 75 132 -10 259 -10C394 -10 476 81 476 237C476 403 381 490 259 490C130 490 40 394 40 239ZM379 241C379 118 330 59 259 59C184 59 137 121 137 241C137 349 184 414 258 414C336 414 379 345 379 241ZM139 710 296 551 336 584 200 766Z" glyph-name="ograve" horiz-adv-x="516" unicode="&#242;" /><glyph d="M40 239C40 75 132 -10 259 -10C394 -10 476 81 476 237C476 403 381 490 259 490C130 490 40 394 40 239ZM379 241C379 118 330 59 259 59C184 59 137 121 137 241C137 349 184 414 258 414C336 414 379 345 379 241ZM133 577 181 554 280 737 216 763ZM303 577 351 554 453 730 392 760Z" glyph-name="ohungarumlaut" horiz-adv-x="516" unicode="&#337;" /><glyph d="M40 239C40 75 132 -10 259 -10C394 -10 476 81 476 237C476 403 381 490 259 490C130 490 40 394 40 239ZM379 241C379 118 330 59 259 59C184 59 137 121 137 241C137 349 184 414 258 414C336 414 379 345 379 241ZM123 710V648H399V710Z" glyph-name="omacron" horiz-adv-x="516" unicode="&#333;" /><glyph d="M263 677 38 527 56 479 265 591 220 611V0H322V677Z" glyph-name="one" horiz-adv-x="412" unicode="1" /><glyph d="M33 410 50 367 222 447 179 465V0H278V525H221Z" glyph-name="one.small" horiz-adv-x="351" /><glyph d="M63 450 72 404 270 448 226 465V3H325V525H268ZM79 3H447V64H79Z" glyph-name="one.small_tab" horiz-adv-x="500" /><glyph d="M325 677 81 590 97 537 325 587 282 611V3H384V677ZM107 3H534V70H107Z" glyph-name="one.tab" horiz-adv-x="585" /><glyph d="M22 600 131 671H171V359H99V623L131 613L34 569ZM472 178C452 236 483 313 575 313C643 313 680 274 680 216C680 131 597 87 504 11L520 53H687V0H468V32C542 95 606 146 606 205C606 235 590 255 560 255C518 255 501 221 512 178ZM474 670H551L211 0H133Z" glyph-name="onehalf" horiz-adv-x="716" unicode="&#189;" /><glyph d="M163 307 22 218 36 183 165 243 130 257V-100H208V307Z" glyph-name="oneinferior" horiz-adv-x="261" unicode="&#8321;" /><glyph d="M22 600 131 671H171V359H99V623L131 613L34 569ZM554 0V272L576 273L441 93L439 128H675V79H420V125L560 311H624V0ZM474 670H551L211 0H133Z" glyph-name="onequarter" horiz-adv-x="689" unicode="&#188;" /><glyph d="M163 812 22 723 36 688 165 748 130 762V405H208V812Z" glyph-name="onesuperior" horiz-adv-x="261" unicode="&#185;" /><glyph d="M266 402C287 402 303 413 311 426L305 438C300 432 290 429 281 434C268 442 268 456 268 493V596C268 656 240 698 157 698C65 698 44 645 44 595H74C78 624 92 650 138 650C186 650 199 622 199 585V554C186 559 168 563 144 563C57 563 28 520 28 474C28 432 57 400 114 400C165 400 189 428 203 458C205 420 232 402 266 402ZM138 442C110 442 96 454 96 481C96 513 116 534 160 534C175 534 193 529 199 527V522C199 492 185 442 138 442Z" glyph-name="ordfeminine" horiz-adv-x="328" unicode="&#170;" /><glyph d="M166 451C206 451 238 479 238 550C238 609 207 642 166 642C124 642 94 611 94 549C94 480 127 451 166 451ZM166 400C94 400 23 443 23 547C23 641 83 698 167 698C236 698 309 652 309 548C309 453 253 400 166 400Z" glyph-name="ordmasculine" horiz-adv-x="331" unicode="&#186;" /><glyph d="M420 485 43 -8H103L479 485ZM40 239C40 75 132 -10 259 -10C394 -10 476 81 476 237C476 403 381 490 259 490C130 490 40 394 40 239ZM379 241C379 118 330 59 259 59C184 59 137 121 137 241C137 349 184 414 258 414C336 414 379 345 379 241Z" glyph-name="oslash" horiz-adv-x="519" unicode="&#248;" /><glyph d="M420 485 43 -8H103L479 485ZM40 239C40 75 132 -10 259 -10C394 -10 476 81 476 237C476 403 381 490 259 490C130 490 40 394 40 239ZM379 241C379 118 330 59 259 59C184 59 137 121 137 241C137 349 184 414 258 414C336 414 379 345 379 241ZM180 584 220 551 377 710 316 766Z" glyph-name="oslashacute" horiz-adv-x="519" unicode="&#511;" /><glyph d="M40 239C40 75 132 -10 259 -10C394 -10 476 81 476 237C476 403 381 490 259 490C130 490 40 394 40 239ZM379 241C379 118 330 59 259 59C184 59 137 121 137 241C137 349 184 414 258 414C336 414 379 345 379 241ZM119 581H144C133 624 141 664 181 664C243 664 242 582 320 582C390 582 418 648 390 734H364C375 691 368 651 328 651C273 651 273 733 189 733C119 733 90 669 119 581Z" glyph-name="otilde" horiz-adv-x="516" unicode="&#245;" /><glyph d="M150 242C150 68 219 -10 318 -10C428 -10 507 88 507 243C507 415 412 490 318 490C193 490 150 381 150 242ZM408 231C408 127 362 59 287 59C225 59 167 121 167 229C167 353 215 414 287 414C349 414 408 360 408 231ZM70 475V-240H167V291L162 332L152 480Z" glyph-name="p" horiz-adv-x="547" unicode="p" /><glyph d="M103 550C103 447 140 399 208 399C277 399 327 458 327 550C327 652 269 698 207 698C126 698 103 630 103 550ZM252 542C252 486 228 449 184 449C146 449 116 485 116 540C116 612 144 642 184 642C221 642 252 613 252 542ZM43 688V263H116V576L112 601L105 692Z" glyph-name="p.superior" horiz-adv-x="351" /><glyph d="M502 -113V690H399V-113ZM304 -113V690H255C144 690 51 623 51 501C51 380 133 312 255 312V-113ZM263 617H562V690H263Z" glyph-name="paragraph" horiz-adv-x="592" unicode="&#182;" /><glyph d="M158 270C158 514 268 661 294 695L245 738C178 687 50 516 50 270C50 23 179 -142 245 -193L294 -150C268 -116 158 26 158 270Z" glyph-name="parenleft" horiz-adv-x="324" unicode="(" /><glyph d="M158 320C158 564 268 711 294 745L245 788C178 737 50 566 50 320C50 73 179 -92 245 -143L294 -100C268 -66 158 76 158 320Z" glyph-name="parenleft.cap" horiz-adv-x="324" /><glyph d="M147 258C147 461 227 580 253 613L209 651C147 602 50 463 50 257C50 52 145 -84 209 -136L253 -98C224 -60 147 57 147 258Z" glyph-name="parenleft.small" horiz-adv-x="283" /><glyph d="M166 275C166 31 56 -116 30 -150L79 -193C146 -142 274 29 274 275C274 522 145 687 79 738L30 695C56 661 166 519 166 275Z" glyph-name="parenright" horiz-adv-x="324" unicode=")" /><glyph d="M166 325C166 81 56 -66 30 -100L79 -143C146 -92 274 79 274 325C274 572 145 737 79 788L30 745C56 711 166 569 166 325Z" glyph-name="parenright.cap" horiz-adv-x="324" /><glyph d="M136 257C136 54 56 -65 30 -98L74 -136C136 -87 233 52 233 258C233 463 138 599 74 651L30 613C59 575 136 458 136 257Z" glyph-name="parenright.small" horiz-adv-x="283" /><glyph d="M261 698C191 698 140 678 111 658L136 606C162 620 196 632 237 632C315 633 407 575 407 378C407 145 344 60 250 60C175 60 137 127 137 219C137 316 177 399 273 399C372 399 397 300 402 257L427 302C422 349 388 471 249 471C104 471 39 350 39 219C39 91 110 -10 251 -10C416 -10 507 145 507 365C507 595 389 698 261 698Z" glyph-name="partialdiff" horiz-adv-x="546" unicode="&#8706;" /><glyph d="M142 447C70 447 20 496 20 565C20 637 70 684 142 684C213 684 263 637 263 565C263 496 213 447 142 447ZM142 506C175 506 201 533 201 565C201 597 175 624 142 624C108 624 83 597 83 565C83 533 108 506 142 506ZM510 -10C438 -10 388 39 388 109C388 181 438 227 510 227C580 227 630 181 630 109C630 39 580 -10 510 -10ZM509 50C543 50 568 76 568 108C568 141 543 167 509 167C475 167 450 141 450 108C450 76 475 50 509 50ZM448 670H525L185 0H107Z" glyph-name="percent" horiz-adv-x="650" unicode="%" /><glyph d="M70 48C70 15 92 -10 129 -10C163 -10 184 15 184 48C184 77 162 104 128 104C92 104 70 77 70 48Z" glyph-name="period" horiz-adv-x="254" unicode="." /><glyph d="M60 349C60 316 82 291 119 291C153 291 174 316 174 349C174 378 152 405 118 405C82 405 60 378 60 349Z" glyph-name="periodcentered" horiz-adv-x="234" unicode="&#183;" /><glyph d="M60 383C60 350 82 325 119 325C153 325 174 350 174 383C174 412 152 439 118 439C82 439 60 412 60 383Z" glyph-name="periodcentered.cap" horiz-adv-x="234" /><glyph d="M142 447C70 447 20 496 20 565C20 637 70 684 142 684C213 684 263 637 263 565C263 496 213 447 142 447ZM142 506C175 506 201 533 201 565C201 597 175 624 142 624C108 624 83 597 83 565C83 533 108 506 142 506ZM510 -10C438 -10 388 39 388 109C388 181 438 227 510 227C580 227 630 181 630 109C630 39 580 -10 510 -10ZM509 50C543 50 568 76 568 108C568 141 543 167 509 167C475 167 450 141 450 108C450 76 475 50 509 50ZM805 -10C733 -10 683 39 683 109C683 181 733 227 805 227C875 227 925 181 925 109C925 39 875 -10 805 -10ZM804 50C838 50 863 76 863 108C863 141 838 167 804 167C770 167 745 141 745 108C745 76 770 50 804 50ZM448 670H525L185 0H107Z" glyph-name="perthousand" horiz-adv-x="945" unicode="&#8240;" /><glyph d="M379 133C379 34 418 -10 494 -10C563 -10 592 30 592 101H567C566 68 550 56 525 56C483 56 476 90 476 132V467H379ZM123 468V203C123 84 120 37 113 0H180C205 50 220 110 220 196V468ZM10 475V423H593V475Z" glyph-name="pi" horiz-adv-x="625" unicode="&#960;" /><glyph d="M332 94V529H253V94ZM505 351H80V272H505Z" glyph-name="plus" horiz-adv-x="585" unicode="+" /><glyph d="M505 361H80V287H505ZM332 104V534H253V104ZM506 67H81V-7H506Z" glyph-name="plusminus" horiz-adv-x="585" unicode="&#177;" /><glyph d="M80 690V-130H183V626L174 616H510L501 626V-130H603V690Z" glyph-name="product" horiz-adv-x="683" unicode="&#8719;" /><glyph d="M40 238C40 65 135 -10 229 -10C354 -10 399 87 399 244C399 408 328 490 229 490C119 490 40 393 40 238ZM380 243C380 118 332 59 261 59C198 59 139 113 139 241C139 345 186 413 260 413C322 413 380 350 380 243ZM380 322V-240H478V480L396 475L386 362Z" glyph-name="q" horiz-adv-x="548" unicode="q" /><glyph d="M25 547C25 445 83 399 144 399C226 399 248 454 248 546C248 643 211 698 143 698C74 698 25 638 25 547ZM235 550C235 479 207 449 168 449C131 449 100 479 100 549C100 604 124 642 168 642C205 642 235 605 235 550ZM235 599V263H309V692L247 688L239 623Z" glyph-name="q.superior" horiz-adv-x="352" /><glyph d="M228 289C313 295 446 331 446 499C446 628 361 698 239 698C129 698 40 640 46 500H93C98 567 143 612 216 612C303 612 346 558 346 479C346 357 252 325 161 325L167 192H222ZM141 44C141 11 163 -10 200 -10C234 -10 255 11 255 44C255 75 234 96 200 96C163 96 141 75 141 44Z" glyph-name="question" horiz-adv-x="496" unicode="?" /><glyph d="M198 179 202 255C266 258 361 284 361 395C361 485 300 533 202 533C110 533 41 487 46 392H91C95 441 124 474 180 474C241 474 269 439 269 384C269 305 198 284 135 282L140 179ZM119 43C119 11 140 -10 174 -10C205 -10 227 11 227 43C227 72 206 93 174 93C141 93 119 72 119 43Z" glyph-name="question.small" horiz-adv-x="411" /><glyph d="M263 186C178 180 45 144 45 -24C45 -153 130 -223 252 -223C362 -223 451 -165 445 -25H398C393 -92 348 -137 275 -137C188 -137 145 -83 145 -4C145 118 239 150 330 150L324 283H269ZM350 431C350 464 328 485 291 485C257 485 236 464 236 431C236 400 257 379 291 379C328 379 350 400 350 431Z" glyph-name="questiondown" horiz-adv-x="491" unicode="&#191;" /><glyph d="M268 399C183 393 50 357 50 189C50 60 135 -10 257 -10C367 -10 456 48 450 188H403C398 121 353 76 280 76C193 76 150 130 150 209C150 331 244 363 335 363L329 496H274ZM355 644C355 677 333 698 296 698C262 698 241 677 241 644C241 613 262 592 296 592C333 592 355 613 355 644Z" glyph-name="questiondown.cap" horiz-adv-x="495" /><glyph d="M213 344 209 268C145 265 50 239 50 128C50 38 111 -10 209 -10C301 -10 370 36 365 131H320C316 82 287 49 231 49C170 49 142 84 142 139C142 218 213 239 276 241L271 344ZM292 480C292 512 271 533 237 533C206 533 184 512 184 480C184 451 205 430 237 430C270 430 292 451 292 480Z" glyph-name="questiondown.small" horiz-adv-x="410" /><glyph d="M109 537H40V710H109ZM259 537H190V710H259Z" glyph-name="quotedbl" horiz-adv-x="294" unicode="&quot;" /><glyph d="M50 -137 71 -166C111 -144 183 -58 183 41C183 76 163 103 124 103C93 103 69 79 69 47C69 12 90 -7 125 -7C119 -61 77 -118 50 -137ZM236 -137 257 -166C297 -144 369 -58 369 41C369 76 349 103 310 103C279 103 255 79 255 47C255 12 276 -7 311 -7C305 -61 263 -118 236 -137Z" glyph-name="quotedblbase" horiz-adv-x="379" unicode="&#8222;" /><glyph d="M156 680 134 710C92 685 30 608 30 519C30 484 51 457 89 457C121 457 144 481 144 513C144 548 124 566 89 566C96 615 132 662 156 680ZM341 680 319 710C277 685 215 608 215 519C215 484 236 457 274 457C306 457 329 481 329 513C329 548 309 566 274 566C281 615 317 662 341 680Z" glyph-name="quotedblleft" horiz-adv-x="377" unicode="&#8220;" /><glyph d="M36 487 58 457C100 483 162 560 162 649C162 684 141 710 103 710C71 710 48 687 48 655C48 620 68 601 103 601C96 552 60 506 36 487ZM221 487 243 457C285 483 347 560 347 649C347 684 326 710 288 710C256 710 233 687 233 655C233 620 253 601 288 601C281 552 245 506 221 487Z" glyph-name="quotedblright" horiz-adv-x="377" unicode="&#8221;" /><glyph d="M156 680 134 710C92 685 30 608 30 519C30 484 51 457 89 457C121 457 144 481 144 513C144 548 124 566 89 566C96 615 132 662 156 680Z" glyph-name="quoteleft" horiz-adv-x="192" unicode="&#8216;" /><glyph d="M36 487 58 457C100 483 162 560 162 649C162 684 141 710 103 710C71 710 48 687 48 655C48 620 68 601 103 601C96 552 60 506 36 487Z" glyph-name="quoteright" horiz-adv-x="192" unicode="&#8217;" /><glyph d="M50 -137 71 -166C111 -144 183 -58 183 41C183 76 163 103 124 103C93 103 69 79 69 47C69 12 90 -7 125 -7C119 -61 77 -118 50 -137Z" glyph-name="quotesinglbase" horiz-adv-x="194" unicode="&#8218;" /><glyph d="M109 537H40V710H109Z" glyph-name="quotesingle" horiz-adv-x="149" unicode="'" /><glyph d="M292 490C165 490 152 328 152 209L167 177C167 319 193 408 277 408C313 408 331 389 339 364C344 350 345 334 345 319H386C390 333 393 346 393 367C393 415 370 490 292 490ZM70 475V0H167V271L162 303L152 480Z" glyph-name="r" horiz-adv-x="409" unicode="r" /><glyph d="M191 698C115 698 107 601 107 529L117 506C117 594 138 641 181 641C208 641 217 622 218 604C219 602 219 599 218 596H250C253 605 255 613 255 627C255 659 238 698 191 698ZM43 688V405H117V567L113 587L105 692Z" glyph-name="r.superior" horiz-adv-x="266" /><glyph d="M292 490C165 490 152 328 152 209L167 177C167 319 193 408 277 408C313 408 331 389 339 364C344 350 345 334 345 319H386C390 333 393 346 393 367C393 415 370 490 292 490ZM70 475V0H167V271L162 303L152 480ZM156 584 196 551 353 710 292 766Z" glyph-name="racute" horiz-adv-x="409" unicode="&#341;" /><glyph d="M163 274H0V216H85L79 230L220 -145H323L575 710H479L257 -90H293Z" glyph-name="radical" horiz-adv-x="570" unicode="&#8730;" /><glyph d="M292 490C165 490 152 328 152 209L167 177C167 319 193 408 277 408C313 408 331 389 339 364C344 350 345 334 345 319H386C390 333 393 346 393 367C393 415 370 490 292 490ZM70 475V0H167V271L162 303L152 480ZM66 730 202 557H255L391 730L355 758L228 632L102 758Z" glyph-name="rcaron" horiz-adv-x="409" unicode="&#345;" /><glyph d="M292 490C165 490 152 328 152 209L167 177C167 319 193 408 277 408C313 408 331 389 339 364C344 350 345 334 345 319H386C390 333 393 346 393 367C393 415 370 490 292 490ZM70 475V0H167V271L162 303L152 480ZM40 -218 89 -229 164 -55H86Z" glyph-name="rcommaaccent" horiz-adv-x="409" unicode="&#343;" /><glyph d="M286 213C436 213 537 322 537 462C537 602 436 710 286 710C135 710 34 602 34 462C34 322 136 213 286 213ZM285 264C157 264 91 353 91 461C91 569 157 658 285 658C407 658 479 569 479 461C479 353 414 264 285 264ZM374 330C389 330 403 337 411 349L405 360C404 359 400 356 395 356C382 356 382 371 382 405C382 443 366 457 332 461C368 469 392 487 392 526C392 574 355 595 292 595H190V333H248V443H277C308 443 323 431 323 397C323 347 336 330 374 330ZM280 557C315 557 336 545 336 516C336 487 314 477 281 477H248V557Z" glyph-name="registered" horiz-adv-x="571" unicode="&#174;" /><glyph d="M141 682C141 624 185 578 249 578C316 578 359 624 359 682C359 741 316 786 249 786C186 786 141 741 141 682ZM305 675C305 643 282 619 250 619C217 619 194 643 194 675C194 708 217 733 250 733C282 733 305 708 305 675Z" glyph-name="ring" horiz-adv-x="500" unicode="&#730;" /><glyph d="M144 815C144 759 187 715 249 715C313 715 355 759 355 815C355 872 313 916 249 916C188 916 144 872 144 815ZM301 808C301 779 279 756 250 756C219 756 198 779 198 808C198 838 219 861 250 861C279 861 301 838 301 808Z" glyph-name="ring.cap" horiz-adv-x="500" /><glyph d="M38 154C38 51 98 -10 221 -10C330 -10 403 46 403 136C403 209 365 255 263 282C181 304 148 316 148 363C148 412 186 432 239 432C304 432 338 392 341 348H385C395 437 330 490 229 490C125 490 54 434 54 346C54 262 107 224 204 199C280 180 306 160 306 115C306 61 259 44 206 44C134 44 92 84 80 154Z" glyph-name="s" horiz-adv-x="441" unicode="s" /><glyph d="M28 500C29 438 64 399 143 399C217 399 260 435 260 488C260 532 236 561 172 578C122 591 108 597 108 620C108 644 127 656 158 656C195 656 213 635 215 610H248C256 665 216 698 149 698C79 698 36 662 36 608C36 556 68 533 130 518C173 508 188 499 188 475C188 450 164 439 133 439C93 439 66 460 60 500Z" glyph-name="s.superior" horiz-adv-x="283" /><glyph d="M38 154C38 51 98 -10 221 -10C330 -10 403 46 403 136C403 209 365 255 263 282C181 304 148 316 148 363C148 412 186 432 239 432C304 432 338 392 341 348H385C395 437 330 490 229 490C125 490 54 434 54 346C54 262 107 224 204 199C280 180 306 160 306 115C306 61 259 44 206 44C134 44 92 84 80 154ZM151 584 191 551 348 710 287 766Z" glyph-name="sacute" horiz-adv-x="441" unicode="&#347;" /><glyph d="M38 154C38 51 98 -10 221 -10C330 -10 403 46 403 136C403 209 365 255 263 282C181 304 148 316 148 363C148 412 186 432 239 432C304 432 338 392 341 348H385C395 437 330 490 229 490C125 490 54 434 54 346C54 262 107 224 204 199C280 180 306 160 306 115C306 61 259 44 206 44C134 44 92 84 80 154ZM60 730 196 557H249L385 730L349 758L222 632L96 758Z" glyph-name="scaron" horiz-adv-x="441" unicode="&#353;" /><glyph d="M38 154C38 51 98 -10 221 -10C330 -10 403 46 403 136C403 209 365 255 263 282C181 304 148 316 148 363C148 412 186 432 239 432C304 432 338 392 341 348H385C395 437 330 490 229 490C125 490 54 434 54 346C54 262 107 224 204 199C280 180 306 160 306 115C306 61 259 44 206 44C134 44 92 84 80 154ZM165 -115C160 -161 179 -199 239 -199C287 -199 322 -172 322 -119C322 -57 273 -33 210 -49L225 -54L233 0L202 4L182 -69L201 -79C236 -72 259 -83 259 -119C259 -144 245 -158 225 -158C198 -158 188 -144 189 -115Z" glyph-name="scedilla" horiz-adv-x="441" unicode="&#351;" /><glyph d="M440 250C440 405 358 485 224 485C108 485 40 417 40 309H75C82 373 122 417 202 417C295 417 342 352 342 242V223C342 124 297 61 222 61C150 61 134 106 134 148C134 161 135 172 136 175H385L388 226H62C60 213 56 170 56 146C56 67 100 -15 228 -15C360 -15 440 102 440 250Z" glyph-name="schwa" horiz-adv-x="480" unicode="&#601;" /><glyph d="M38 154C38 51 98 -10 221 -10C330 -10 403 46 403 136C403 209 365 255 263 282C181 304 148 316 148 363C148 412 186 432 239 432C304 432 338 392 341 348H385C395 437 330 490 229 490C125 490 54 434 54 346C54 262 107 224 204 199C280 180 306 160 306 115C306 61 259 44 206 44C134 44 92 84 80 154ZM63 582 97 550 226 676 354 550 388 582 252 753H199Z" glyph-name="scircumflex" horiz-adv-x="441" unicode="&#349;" /><glyph d="M38 154C38 51 98 -10 221 -10C330 -10 403 46 403 136C403 209 365 255 263 282C181 304 148 316 148 363C148 412 186 432 239 432C304 432 338 392 341 348H385C395 437 330 490 229 490C125 490 54 434 54 346C54 262 107 224 204 199C280 180 306 160 306 115C306 61 259 44 206 44C134 44 92 84 80 154ZM140 -218 189 -229 264 -55H186Z" glyph-name="scommaaccent" horiz-adv-x="441" unicode="&#537;" /><glyph d="M401 536H443C443 625 375 691 263 691C145 691 71 633 71 533C71 437 153 398 248 362C329 332 375 309 375 245C375 204 358 174 323 154L372 129C420 154 465 207 465 274C465 369 398 409 305 444C229 473 178 491 178 547C178 606 218 631 282 631C354 631 394 589 401 536ZM123 8H81C81 -86 152 -153 264 -153C382 -153 464 -101 464 5C464 104 379 142 283 179C201 209 156 232 156 295C156 337 179 368 210 387L159 411C113 385 66 338 66 267C66 176 125 135 217 100C298 69 358 50 358 -10C358 -65 316 -94 245 -94C166 -94 131 -46 123 8Z" glyph-name="section" horiz-adv-x="530" unicode="&#167;" /><glyph d="M52 -136 73 -165C113 -143 185 -58 185 42C185 77 165 103 126 103C95 103 71 80 71 48C71 13 92 -6 127 -6C121 -60 79 -117 52 -136ZM70 415C70 385 92 357 129 357C163 357 184 385 184 415C184 443 163 471 129 471C92 471 70 443 70 415Z" glyph-name="semicolon" horiz-adv-x="255" unicode=";" /><glyph d="M487 670H50V590H431L415 622C217 394 133 191 123 0H230C241 156 304 361 487 614Z" glyph-name="seven" horiz-adv-x="522" unicode="7" /><glyph d="M52 523V448H373L358 480C205 320 119 172 109 1H212C222 139 288 290 427 473V523Z" glyph-name="seven.small" horiz-adv-x="456" /><glyph d="M272 1C278 141 327 292 462 473V523H67V363H125V448H366C241 302 178 160 169 1Z" glyph-name="seven.small_tab" horiz-adv-x="500" /><glyph d="M272 0C282 151 390 400 550 614V670H59V475H123V591H448C287 393 176 171 165 0Z" glyph-name="seven.tab" horiz-adv-x="585" /><glyph d="M306 303H28V242H264L251 267C128 136 79 22 71 -100H152C160 -2 193 110 306 262Z" glyph-name="seveninferior" horiz-adv-x="330" unicode="&#8327;" /><glyph d="M306 808H28V747H264L251 772C128 641 79 527 71 405H152C160 503 193 615 306 767Z" glyph-name="sevensuperior" horiz-adv-x="330" unicode="&#8311;" /><glyph d="M303 346C374 346 427 302 427 211C427 129 377 73 298 73C213 73 170 132 170 208C170 287 215 346 303 346ZM306 680C127 680 47 523 47 325C47 117 123 -10 302 -10C424 -10 521 66 521 212C521 352 437 415 335 415C211 415 138 335 146 211L154 213C149 244 147 301 147 331C147 509 209 599 322 599C428 599 453 530 457 484H512C518 584 468 680 306 680Z" glyph-name="six" horiz-adv-x="573" unicode="6" /><glyph d="M263 264C323 264 360 231 360 165C360 106 321 64 258 64C194 64 160 103 160 159C160 217 193 264 263 264ZM266 533C115 533 44 407 44 254C44 92 110 -10 262 -10C366 -10 451 51 451 166C451 274 384 325 293 325C192 325 135 261 138 170H145C140 187 139 247 139 259C139 395 193 460 282 460C365 460 388 409 391 376H443C449 456 403 533 266 533Z" glyph-name="six.small" horiz-adv-x="500" /><glyph d="M263 264C323 264 360 231 360 165C360 106 321 64 258 64C194 64 160 103 160 159C160 217 193 264 263 264ZM266 533C115 533 44 407 44 254C44 92 110 -10 262 -10C366 -10 451 51 451 166C451 274 384 325 293 325C192 325 135 261 138 170H145C140 187 139 247 139 259C139 395 193 460 282 460C365 460 388 409 391 376H443C449 456 403 533 266 533Z" glyph-name="six.small_tab" horiz-adv-x="500" /><glyph d="M312 346C383 346 436 302 436 211C436 129 386 73 307 73C222 73 179 132 179 208C179 287 224 346 312 346ZM315 680C136 680 56 523 56 325C56 117 132 -10 311 -10C433 -10 530 66 530 212C530 352 446 415 344 415C220 415 147 335 155 211L163 213C158 244 156 301 156 331C156 509 218 599 331 599C437 599 462 530 466 484H521C527 584 477 680 315 680Z" glyph-name="six.tab" horiz-adv-x="585" /><glyph d="M190 99C231 99 259 75 259 27C259 -15 231 -45 187 -45C139 -45 116 -14 116 26C116 70 142 99 190 99ZM191 309C78 309 26 213 26 95C26 -27 75 -107 190 -107C267 -107 329 -61 329 28C329 111 278 150 214 150C136 150 94 101 99 34H104C102 48 101 87 101 100C101 204 141 249 205 249C264 249 280 214 283 186H324C328 254 292 309 191 309Z" glyph-name="sixinferior" horiz-adv-x="360" unicode="&#8326;" /><glyph d="M190 604C231 604 259 580 259 532C259 490 231 460 187 460C139 460 116 491 116 531C116 575 142 604 190 604ZM191 814C78 814 26 718 26 600C26 478 75 398 190 398C267 398 329 444 329 533C329 616 278 655 214 655C136 655 94 606 99 539H104C102 553 101 592 101 605C101 709 141 754 205 754C264 754 280 719 283 691H324C328 759 292 814 191 814Z" glyph-name="sixsuperior" horiz-adv-x="360" unicode="&#8310;" /><glyph d="M110 -88 428 710H333L15 -88Z" glyph-name="slash" horiz-adv-x="443" unicode="/" /><glyph glyph-name="space" horiz-adv-x="230" unicode=" " /><glyph d="M344 598C416 598 452 559 470 508H525C515 624 441 680 331 680C195 680 124 589 123 486C123 360 167 304 167 215C167 109 57 47 57 47L79 -6C110 9 177 31 229 31C319 31 334 -7 418 -7C486 -7 528 39 548 95L525 115C505 85 481 70 446 70C387 70 370 107 291 107C228 107 172 72 141 52L144 49C183 82 263 132 263 226C263 309 217 371 217 471C218 551 267 598 344 598ZM423 369H57V310H423Z" glyph-name="sterling" horiz-adv-x="585" unicode="&#163;" /><glyph d="M75 -119H565V-45H190L412 260V307L196 616H565V690H81V625L320 281L75 -55Z" glyph-name="summation" horiz-adv-x="640" unicode="&#8721;" /><glyph d="M82 145C82 37 120 -10 209 -10C288 -10 319 32 319 104H294C294 74 277 56 238 56C191 56 179 87 179 131V595L82 588ZM5 465V428H308V475H83Z" glyph-name="t" horiz-adv-x="346" unicode="t" /><glyph d="M49 501C49 428 79 399 136 399C189 399 207 428 207 475H188C188 458 181 447 158 447C135 447 123 461 123 491V758L49 753ZM4 681V650H200V688H56Z" glyph-name="t.superior" horiz-adv-x="225" /><glyph d="M15 285V238H304V285ZM85 145C85 37 123 -10 212 -10C291 -10 322 32 322 104H297C297 74 280 56 241 56C194 56 182 87 182 131V595L85 588ZM8 465V428H311V475H86Z" glyph-name="tbar" horiz-adv-x="351" unicode="&#359;" /><glyph d="M280 526H335L397 710H317ZM82 145C82 37 120 -10 209 -10C288 -10 319 32 319 104H294C294 74 277 56 238 56C191 56 179 87 179 131V595L82 588ZM5 465V428H308V475H83Z" glyph-name="tcaron" horiz-adv-x="351" unicode="&#357;" /><glyph d="M82 145C82 37 120 -10 209 -10C288 -10 319 32 319 104H294C294 74 277 56 238 56C191 56 179 87 179 131V595L82 588ZM5 465V428H308V475H83ZM135 -115C130 -161 149 -199 209 -199C257 -199 292 -172 292 -119C292 -57 243 -33 180 -49L195 -54L203 0L172 4L152 -69L171 -79C206 -72 229 -83 229 -119C229 -144 215 -158 195 -158C168 -158 158 -144 159 -115Z" glyph-name="tcedilla" horiz-adv-x="346" unicode="&#355;" /><glyph d="M82 145C82 37 120 -10 209 -10C288 -10 319 32 319 104H294C294 74 277 56 238 56C191 56 179 87 179 131V595L82 588ZM5 465V428H308V475H83ZM127 -218 176 -229 251 -55H173Z" glyph-name="tcommaaccent" horiz-adv-x="346" unicode="&#539;" /><glyph d="M150 241C150 67 219 -11 318 -11C428 -11 507 87 507 242C507 414 412 489 318 489C193 489 150 380 150 241ZM408 230C408 126 362 58 287 58C225 58 167 120 167 228C167 352 215 413 287 413C349 413 408 359 408 230ZM70 474V-241H167V290L162 331L152 479ZM70 705V0H167V710Z" glyph-name="thorn" horiz-adv-x="547" unicode="&#254;" /><glyph d="M199 335H244C359 335 486 372 486 503C486 618 401 680 279 680C148 680 57 605 68 469H124C122 546 165 599 255 599C335 599 380 556 380 484C380 402 311 381 232 381H176V312H238C331 312 397 285 397 201C397 120 341 74 253 74C166 74 109 125 110 207H52C40 57 131 -10 276 -10C416 -10 506 64 506 187C506 324 373 355 245 355H199Z" glyph-name="three" horiz-adv-x="564" unicode="3" /><glyph d="M66 363H113C112 419 151 460 222 460C287 460 323 434 323 381C323 321 275 295 202 295H159V235H208C282 235 336 218 336 156C336 97 291 65 221 65C144 65 102 104 102 163H51C40 46 119 -10 244 -10C364 -10 441 47 441 144C441 252 324 274 216 274H165V256H215C314 256 424 286 424 392C424 483 350 533 246 533C141 533 54 473 66 363Z" glyph-name="three.small" horiz-adv-x="500" /><glyph d="M66 363H113C112 419 151 460 222 460C287 460 323 434 323 381C323 321 275 295 202 295H159V235H208C282 235 336 218 336 156C336 97 291 65 221 65C144 65 102 104 102 163H51C40 46 119 -10 244 -10C364 -10 441 47 441 144C441 252 324 274 216 274H165V256H215C314 256 424 286 424 392C424 483 350 533 246 533C141 533 54 473 66 363Z" glyph-name="three.small_tab" horiz-adv-x="500" /><glyph d="M208 335H253C368 335 495 372 495 503C495 618 410 680 288 680C157 680 66 605 77 469H133C131 546 174 599 264 599C344 599 389 556 389 484C389 402 320 381 241 381H185V312H247C340 312 406 285 406 201C406 120 350 74 262 74C175 74 118 125 119 207H61C49 57 140 -10 285 -10C425 -10 515 64 515 187C515 324 382 355 254 355H208Z" glyph-name="three.tab" horiz-adv-x="585" /><glyph d="M123 100H151C224 100 308 120 308 202C308 272 252 309 175 309C95 309 32 265 39 179H77C77 221 103 249 156 249C202 249 228 227 228 188C228 142 189 130 142 130H107V84H145C199 84 238 69 238 24C238 -21 205 -45 155 -45C101 -45 70 -18 69 28H28C21 -68 84 -107 173 -107C262 -107 320 -61 320 13C320 98 231 114 151 114H123Z" glyph-name="threeinferior" horiz-adv-x="353" unicode="&#8323;" /><glyph d="M589 0V272L610 273L475 93L474 128H709V79H454V125L594 311H658V0ZM37 572C30 642 82 674 141 674C198 674 242 644 242 590C242 528 182 513 129 513H107V525H129C188 525 251 511 251 447C251 391 208 354 138 354C69 354 22 387 29 461H65C64 430 84 410 121 410C155 410 175 428 175 459C175 487 154 501 115 501H90V535H113C148 535 169 548 169 577C169 602 151 619 122 619C88 619 70 602 71 572ZM508 670H585L245 0H167Z" glyph-name="threequarters" horiz-adv-x="723" unicode="&#190;" /><glyph d="M123 605H151C224 605 308 625 308 707C308 777 252 814 175 814C95 814 32 770 39 684H77C77 726 103 754 156 754C202 754 228 732 228 693C228 647 189 635 142 635H107V589H145C199 589 238 574 238 529C238 484 205 460 155 460C101 460 70 487 69 533H28C21 437 84 398 173 398C262 398 320 444 320 518C320 603 231 619 151 619H123Z" glyph-name="threesuperior" horiz-adv-x="353" unicode="&#179;" /><glyph d="M115 581H140C129 624 137 664 177 664C239 664 238 582 316 582C386 582 414 648 386 734H360C371 691 364 651 324 651C269 651 269 733 185 733C115 733 86 669 115 581Z" glyph-name="tilde" horiz-adv-x="500" unicode="&#732;" /><glyph d="M327 804C274 804 268 871 189 871C117 871 89 815 115 739H141C133 774 141 806 179 806C238 806 243 739 318 739C390 739 417 798 391 872H365C373 838 366 804 327 804Z" glyph-name="tilde.cap" horiz-adv-x="500" /><glyph d="M445 320 459 663H418L568 327H606L756 648L721 664L735 320H801L787 690H714L571 382H621L485 690H393L379 320ZM220 320V687H136V320ZM15 688V631H333V688Z" glyph-name="trademark" horiz-adv-x="842" unicode="&#8482;" /><glyph d="M520 3V83H119L130 20C324 189 504 292 504 471C504 594 429 679 290 679C106 679 39 526 81 401H139C112 502 159 595 270 595C354 595 395 537 395 460C395 320 250 225 70 60V3Z" glyph-name="two" horiz-adv-x="570" unicode="2" /><glyph d="M69 305H125C104 386 147 457 231 457C298 457 329 411 329 354C329 249 211 168 62 44V3H445V78H120V19C286 147 434 222 434 363C434 461 369 533 250 533C94 533 32 405 69 305Z" glyph-name="two.small" horiz-adv-x="500" /><glyph d="M69 305H125C104 386 147 457 231 457C298 457 329 411 329 354C329 249 211 168 62 44V3H445V78H120V19C286 147 434 222 434 363C434 461 369 533 250 533C94 533 32 405 69 305Z" glyph-name="two.small_tab" horiz-adv-x="500" /><glyph d="M523 3V83H122L133 20C327 189 507 292 507 471C507 594 432 679 293 679C109 679 42 526 84 401H142C115 502 162 595 273 595C357 595 398 537 398 460C398 320 253 225 73 60V3Z" glyph-name="two.tab" horiz-adv-x="585" /><glyph d="M328 -98V-40H81L88 -86C204 8 319 70 319 181C319 258 271 309 181 309C63 309 20 213 47 137H90C76 196 103 247 166 247C214 247 236 216 236 173C236 92 148 27 41 -65V-98Z" glyph-name="twoinferior" horiz-adv-x="357" unicode="&#8322;" /><glyph d="M328 407V465H81L88 419C204 513 319 575 319 686C319 763 271 814 181 814C63 814 20 718 47 642H90C76 701 103 752 166 752C214 752 236 721 236 678C236 597 148 532 41 440V407Z" glyph-name="twosuperior" horiz-adv-x="357" unicode="&#178;" /><glyph d="M381 246 370 283C370 150 334 72 257 72C185 72 162 118 162 225V480L65 475V180C65 65 98 -10 215 -10C354 -10 381 123 381 246ZM373 130 378 0H467V480L370 475V187Z" glyph-name="u" horiz-adv-x="537" unicode="u" /><glyph d="M238 557 230 583C230 501 209 458 165 458C127 458 113 482 113 544V692L40 688V511C40 443 61 399 135 399C225 399 238 483 238 557ZM232 484 236 405H304V692L230 688V523Z" glyph-name="u.superior" horiz-adv-x="346" /><glyph d="M381 246 370 283C370 150 334 72 257 72C185 72 162 118 162 225V480L65 475V180C65 65 98 -10 215 -10C354 -10 381 123 381 246ZM373 130 378 0H467V480L370 475V187ZM197 584 237 551 394 710 333 766Z" glyph-name="uacute" horiz-adv-x="537" unicode="&#250;" /><glyph d="M381 246 370 283C370 150 334 72 257 72C185 72 162 118 162 225V480L65 475V180C65 65 98 -10 215 -10C354 -10 381 123 381 246ZM373 130 378 0H467V480L370 475V187ZM275 576C390 576 424 669 419 744H383C378 709 362 648 275 648C189 648 172 709 168 744H131C126 669 160 576 275 576Z" glyph-name="ubreve" horiz-adv-x="537" unicode="&#365;" /><glyph d="M381 246 370 283C370 150 334 72 257 72C185 72 162 118 162 225V480L65 475V180C65 65 98 -10 215 -10C354 -10 381 123 381 246ZM373 130 378 0H467V480L370 475V187ZM110 582 144 550 273 676 401 550 435 582 299 753H246Z" glyph-name="ucircumflex" horiz-adv-x="537" unicode="&#251;" /><glyph d="M381 246 370 283C370 150 334 72 257 72C185 72 162 118 162 225V480L65 475V180C65 65 98 -10 215 -10C354 -10 381 123 381 246ZM373 130 378 0H467V480L370 475V187ZM142 616H235V710H142ZM316 616H409V710H316Z" glyph-name="udieresis" horiz-adv-x="537" unicode="&#252;" /><glyph d="M381 246 370 283C370 150 334 72 257 72C185 72 162 118 162 225V480L65 475V180C65 65 98 -10 215 -10C354 -10 381 123 381 246ZM373 130 378 0H467V480L370 475V187ZM159 710 316 551 356 584 220 766Z" glyph-name="ugrave" horiz-adv-x="537" unicode="&#249;" /><glyph d="M381 246 370 283C370 150 334 72 257 72C185 72 162 118 162 225V480L65 475V180C65 65 98 -10 215 -10C354 -10 381 123 381 246ZM373 130 378 0H467V480L370 475V187ZM148 577 196 554 295 737 231 763ZM318 577 366 554 468 730 407 760Z" glyph-name="uhungarumlaut" horiz-adv-x="537" unicode="&#369;" /><glyph d="M381 246 370 283C370 150 334 72 257 72C185 72 162 118 162 225V480L65 475V180C65 65 98 -10 215 -10C354 -10 381 123 381 246ZM373 130 378 0H467V480L370 475V187ZM132 710V648H408V710Z" glyph-name="umacron" horiz-adv-x="537" unicode="&#363;" /><glyph d="M0 -173V-250H530V-173Z" glyph-name="underscore" horiz-adv-x="531" unicode="_" /><glyph d="M386 -12C185 -12 48 130 48 342C48 557 194 695 386 695C579 695 725 557 725 342C725 130 579 -12 386 -12ZM385 53C545 53 655 172 655 342C655 510 545 630 385 630C224 630 118 512 118 342C118 175 218 53 385 53ZM266 530V157H349V525L300 473H389C445 473 478 457 478 411C478 360 442 347 393 347H298V291H417C502 291 559 331 559 414C559 490 505 530 416 530Z" glyph-name="uni2117" horiz-adv-x="773" unicode="&#8471;" /><glyph d="M313 -133C313 -174 336 -207 390 -207C450 -207 470 -166 467 -115H444C444 -140 434 -162 409 -162C381 -162 374 -141 374 -122C374 -63 418 -16 467 0L435 19C374 -17 313 -64 313 -133ZM381 246 370 283C370 150 334 72 257 72C185 72 162 118 162 225V480L65 475V180C65 65 98 -10 215 -10C354 -10 381 123 381 246ZM373 130 378 0H467V480L370 475V187Z" glyph-name="uogonek" horiz-adv-x="537" unicode="&#371;" /><glyph d="M381 246 370 283C370 150 334 72 257 72C185 72 162 118 162 225V480L65 475V180C65 65 98 -10 215 -10C354 -10 381 123 381 246ZM373 130 378 0H467V480L370 475V187ZM164 682C164 624 208 578 272 578C339 578 382 624 382 682C382 741 339 786 272 786C209 786 164 741 164 682ZM328 675C328 643 305 619 273 619C240 619 217 643 217 675C217 708 240 733 273 733C305 733 328 708 328 675Z" glyph-name="uring" horiz-adv-x="537" unicode="&#367;" /><glyph d="M381 246 370 283C370 150 334 72 257 72C185 72 162 118 162 225V480L65 475V180C65 65 98 -10 215 -10C354 -10 381 123 381 246ZM373 130 378 0H467V480L370 475V187ZM137 581H162C151 624 159 664 199 664C261 664 260 582 338 582C408 582 436 648 408 734H382C393 691 386 651 346 651C291 651 291 733 207 733C137 733 108 669 137 581Z" glyph-name="utilde" horiz-adv-x="537" unicode="&#361;" /><glyph d="M8 475 178 0H276L446 475H361L229 89H244L115 475Z" glyph-name="v" horiz-adv-x="453" unicode="v" /><glyph d="M4 688 109 405H184L289 688H225L149 471H158L85 688Z" glyph-name="v.superior" horiz-adv-x="292" /><glyph d="M10 475 156 0H236L353 323H346L462 0H551L695 475H616L511 122L398 446H331L220 122L114 475Z" glyph-name="w" horiz-adv-x="705" unicode="w" /><glyph d="M5 688 95 405H159L227 586H222L290 405H353L443 688H383L325 493L261 674H210L146 491L86 688Z" glyph-name="w.superior" horiz-adv-x="448" /><glyph d="M10 475 156 0H236L353 323H346L462 0H551L695 475H616L511 122L398 446H331L220 122L114 475ZM328 584 368 551 525 710 464 766Z" glyph-name="wacute" horiz-adv-x="705" unicode="&#7811;" /><glyph d="M10 475 156 0H236L353 323H346L462 0H551L695 475H616L511 122L398 446H331L220 122L114 475ZM211 582 245 550 374 676 502 550 536 582 400 753H347Z" glyph-name="wcircumflex" horiz-adv-x="705" unicode="&#373;" /><glyph d="M10 475 156 0H236L353 323H346L462 0H551L695 475H616L511 122L398 446H331L220 122L114 475ZM244 616H337V710H244ZM418 616H511V710H418Z" glyph-name="wdieresis" horiz-adv-x="705" unicode="&#7813;" /><glyph d="M10 475 156 0H236L353 323H346L462 0H551L695 475H616L511 122L398 446H331L220 122L114 475ZM244 710 401 551 441 584 305 766Z" glyph-name="wgrave" horiz-adv-x="705" unicode="&#7809;" /><glyph d="M196 220 329 0H445L269 274L251 287L136 475H26L175 236ZM179 261 13 0H94L219 209L265 222L429 475H349L222 267Z" glyph-name="x" horiz-adv-x="458" unicode="x" /><glyph d="M125 533 203 405H289L179 571L168 580L101 688H14L106 544ZM109 561 6 405H69L141 525L176 534L280 688H219L143 565Z" glyph-name="x.superior" horiz-adv-x="296" /><glyph d="M17 -139C16 -169 11 -250 107 -250C150 -250 194 -223 226 -140L456 475H370L238 84L171 -96C149 -157 132 -184 94 -184C56 -184 42 -163 42 -139ZM8 475 207 -21 284 49 112 475Z" glyph-name="y" horiz-adv-x="464" unicode="y" /><glyph d="M11 333C9 314 5 257 72 257C101 257 130 273 152 327L296 688H230L151 462L111 359C95 319 85 304 61 304C38 304 30 318 30 333ZM3 688 129 391 185 442 83 688Z" glyph-name="y.superior" horiz-adv-x="300" /><glyph d="M17 -139C16 -169 11 -250 107 -250C150 -250 194 -223 226 -140L456 475H370L238 84L171 -96C149 -157 132 -184 94 -184C56 -184 42 -163 42 -139ZM8 475 207 -21 284 49 112 475ZM174 584 214 551 371 710 310 766Z" glyph-name="yacute" horiz-adv-x="464" unicode="&#253;" /><glyph d="M17 -139C16 -169 11 -250 107 -250C150 -250 194 -223 226 -140L456 475H370L238 84L171 -96C149 -157 132 -184 94 -184C56 -184 42 -163 42 -139ZM8 475 207 -21 284 49 112 475ZM84 582 118 550 247 676 375 550 409 582 273 753H220Z" glyph-name="ycircumflex" horiz-adv-x="464" unicode="&#375;" /><glyph d="M17 -139C16 -169 11 -250 107 -250C150 -250 194 -223 226 -140L456 475H370L238 84L171 -96C149 -157 132 -184 94 -184C56 -184 42 -163 42 -139ZM8 475 207 -21 284 49 112 475ZM113 616H206V710H113ZM287 616H380V710H287Z" glyph-name="ydieresis" horiz-adv-x="464" unicode="&#255;" /><glyph d="M340 277 252 280 15 670H137L324 355H307L491 670H571ZM250 306H346V0H250ZM508 234V177H86V234ZM229 378 236 321H86V378ZM508 378V321H358L366 378Z" glyph-name="yen" horiz-adv-x="585" unicode="&#165;" /><glyph d="M17 -139C16 -169 11 -250 107 -250C150 -250 194 -223 226 -140L456 475H370L238 84L171 -96C149 -157 132 -184 94 -184C56 -184 42 -163 42 -139ZM8 475 207 -21 284 49 112 475ZM133 710 290 551 330 584 194 766Z" glyph-name="ygrave" horiz-adv-x="464" unicode="&#7923;" /><glyph d="M35 53V0H394V70H86L114 17L391 410V475H51V405H356L319 453Z" glyph-name="z" horiz-adv-x="429" unicode="z" /><glyph d="M23 443V405H254V456H64L81 419L252 641V688H32V633H225L198 673Z" glyph-name="z.superior" horiz-adv-x="277" /><glyph d="M35 53V0H394V70H86L114 17L391 410V475H51V405H356L319 453ZM146 584 186 551 343 710 282 766Z" glyph-name="zacute" horiz-adv-x="429" unicode="&#378;" /><glyph d="M35 53V0H394V70H86L114 17L391 410V475H51V405H356L319 453ZM67 730 203 557H256L392 730L356 758L229 632L103 758Z" glyph-name="zcaron" horiz-adv-x="429" unicode="&#382;" /><glyph d="M35 53V0H394V70H86L114 17L391 410V475H51V405H356L319 453ZM173 612H280V710H173Z" glyph-name="zdotaccent" horiz-adv-x="429" unicode="&#380;" /><glyph d="M304 75C217 75 148 144 148 335C148 515 209 597 304 597C388 597 459 524 459 340C459 164 398 75 304 75ZM295 -10C445 -10 549 105 549 339C549 581 436 680 295 680C144 680 39 567 39 335C39 91 153 -10 295 -10Z" glyph-name="zero" horiz-adv-x="588" unicode="0" /><glyph d="M260 66C190 66 134 116 134 261C134 398 184 458 260 458C327 458 385 403 385 263C385 130 334 66 260 66ZM252 -9C382 -9 471 79 471 263C471 452 376 533 252 533C120 533 29 444 29 260C29 70 126 -9 252 -9Z" glyph-name="zero.small" horiz-adv-x="500" /><glyph d="M260 66C190 66 134 116 134 261C134 398 184 458 260 458C327 458 385 403 385 263C385 130 334 66 260 66ZM252 -9C382 -9 471 79 471 263C471 452 376 533 252 533C120 533 29 444 29 260C29 70 126 -9 252 -9Z" glyph-name="zero.small_tab" horiz-adv-x="500" /><glyph d="M302 75C215 75 146 144 146 335C146 515 207 597 302 597C386 597 457 524 457 340C457 164 396 75 302 75ZM293 -10C443 -10 547 105 547 339C547 581 434 680 293 680C142 680 37 567 37 335C37 91 151 -10 293 -10Z" glyph-name="zero.tab" horiz-adv-x="585" /><glyph d="M193 -44C143 -44 105 -7 105 101C105 205 139 248 193 248C242 248 281 207 281 103C281 4 247 -44 193 -44ZM187 -106C283 -106 349 -39 349 103C349 248 279 309 187 309C90 309 23 242 23 101C23 -45 94 -106 187 -106Z" glyph-name="zeroinferior" horiz-adv-x="372" unicode="&#8320;" /><glyph d="M295 -10C445 -10 549 105 549 339C549 581 436 680 295 680C144 680 39 567 39 335C39 91 153 -10 295 -10ZM304 70C217 70 143 138 143 335C143 518 209 602 304 602C388 602 464 527 464 340C464 159 398 70 304 70ZM427 604 128 98 170 75 468 579Z" glyph-name="zeroslash" horiz-adv-x="588" /><glyph d="M353 468 125 79 166 56 394 445ZM260 66C190 66 134 116 134 261C134 398 184 458 260 458C327 458 385 403 385 263C385 130 334 66 260 66ZM252 -9C382 -9 471 79 471 263C471 452 376 533 252 533C120 533 29 444 29 260C29 70 126 -9 252 -9Z" glyph-name="zeroslash.small" horiz-adv-x="500" /><glyph d="M353 468 125 79 166 56 394 445ZM260 66C190 66 134 116 134 261C134 398 184 458 260 458C327 458 385 403 385 263C385 130 334 66 260 66ZM252 -9C382 -9 471 79 471 263C471 452 376 533 252 533C120 533 29 444 29 260C29 70 126 -9 252 -9Z" glyph-name="zeroslash.small_tab" horiz-adv-x="500" /><glyph d="M293 -10C443 -10 547 105 547 339C547 581 434 680 293 680C142 680 37 567 37 335C37 91 151 -10 293 -10ZM302 70C215 70 141 138 141 335C141 518 207 602 302 602C386 602 462 527 462 340C462 159 396 70 302 70ZM425 604 126 98 168 75 466 579Z" glyph-name="zeroslash.tab" horiz-adv-x="585" /><glyph d="M193 461C143 461 105 498 105 606C105 710 139 753 193 753C242 753 281 712 281 608C281 509 247 461 193 461ZM187 399C283 399 349 466 349 608C349 753 279 814 187 814C90 814 23 747 23 606C23 460 94 399 187 399Z" glyph-name="zerosuperior" horiz-adv-x="372" unicode="&#8304;" /></font>
</defs>
</svg>
